Contenu | Rechercher | Menus

Annonce

Ubuntu-fr.org recrute toujours de nouveaux modérateurs, avec de l'expérience.

Ubuntu 16.04 LTS
Commandez vos DVD et clés USB Ubuntu-fr !

Si vous avez des soucis pour rester connecté, déconnectez vous et reconnectez vous depuis ce lien en cochant le case
Me connecter automatiquement lors de mes prochaines visites.

nombre réponses : 25

#1 Re : -1 »  Pas de son sur youtube et Daylimotion » Le 26/06/2016, à 10:21

golgot200
Réponses : 5

Bonjour,

j'ai eu le même problème un jour. A tout hasard, on sait jamais, tu n'aurais pas bidouillé un fichier .asoundrc dans ton home. Si c'est le cas, vires le pour voir et redémarre la machine. Avec un peu de chance.

#2 Re : -1 »  Convertir du .WAV en .MP3 » Le 14/07/2016, à 16:54

golgot200
Réponses : 12

Bonjour

ABCDE
https://doc.ubuntu-fr.org/abcde

Modèles de configuration :
http://www.andrews-corner.org/abcde.html


ou
Asunder  (effectivement)
https://doc.ubuntu-fr.org/asunder

sont très bien aussi.

#4 Re : -1 »  Attention !! - WD Caviar Green problèmes de parquages sous linux. » Le 06/07/2015, à 17:46

golgot200
Réponses : 553
SilentStorm a écrit :

Non, les WD Caviar Green fonctionne très bien sous Linux sans problème de parquages, pour le Red je ne sais pas j'ai pas testé.

Oui, chez moi les 1 TO


Mais le Green de 2 TO chez moi  me donne ça :

smartctl -A /dev/sda | grep "^193"
193 Load_Cycle_Count        0x0032   198   198   000    Old_age   Always       -       7964

Donc il a ce problème de parcage, du moins je pense  wink

Et il n'est pas très vieux et n'a quasiement pas tourné.

idle3ctl -g /dev/sda
me donne :
Idle3 timer set to 80 (0x50)

Les 1 TO en green sont :

idle3ctl -g /dev/sda
Idle3 timer is disabled

Blue idem

smile

#5 Re : -1 »  Logiciel pour croquis de meubles en 3D » Le 10/03/2016, à 06:53

golgot200
Réponses : 26

Bonjour,

et pourquoi pas Blender et un rendu avec freestyle ?
C'est une idée comme une autre wink

#6 Re : -1 »  Logiciel pour croquis de meubles en 3D » Le 16/03/2016, à 22:02

golgot200
Réponses : 26

@Gemnoc

Un truc vite fait :

smile

Freestyle                                                                                                                                                           Sans
1458158511.png
1458158818.png


Edit : liens avec miniatures

#8 Re : -1 »  Logiciel pour croquis de meubles en 3D » Le 18/03/2016, à 09:54

golgot200
Réponses : 26

Bonjour,

Gemnoc a écrit :

As-tu toi-même créé les textures de bois ?

Non pas cette fois, c'est du vite fait wink . J'ai mappé une texture bois trouvé sur le net.

Par contre, je prend un énorme plaisir à faire mes materiaux moi même sans textures :
https://debian-facile.org/viewtopic.php?id=10495


1436371513.png

Un truc bluffant sans texture ou j'en ai bien ch...

1438285594.png 1443080214.png


...

Modération : Veuillez s'il vous plaît respecter la taille des images, ou utiliser des hébergeurs d'images qui en  créent automatiquement, comme Toile-libre. Merci.

#9 Re : -1 »  Logiciel pour croquis de meubles en 3D » Le 21/03/2016, à 10:55

golgot200
Réponses : 26

Bonjour

Gemnoc a écrit :

Il me semble qu'un jeu de matériaux et textures courants (bois, métaux, plastiques, etc.) devrait être intégrés par défaut à Blender.

Si, par les nodes. Mais à toi de régler tout ça au petits oignons. (comme par exemple la node Mapping "location, rotation & scale)
Il existe aussi des add-ons  (scripts) du genre mat-lib etc.


Gemnoc a écrit :

Chapeau! J'admire ta persévérance et ton talent.

Pas si tant  smile

#10 Re : -1 »  [RESOLU] VLC revient au début de la vidéo.mkv » Le 12/03/2016, à 10:15

golgot200
Réponses : 12

Bonjour,

et avec une autre vidéo ?

#11 Re : -1 »  quels logiciels pour ce type de vidéo? » Le 01/03/2016, à 09:47

golgot200
Réponses : 17
souen a écrit :

Okay merci pour le lien. Encore une chose, ça te semble réaliste de se former en autodidacte
sur Blender ou c'est beaucoup trop difficile?

Oui très réaliste.
Tu prend un premier tuto simple. Tu le fais et refais jusqu'à que tu sois capable de le refaire seul et sutout de comprendre ce que tu as et pourquoi. 
Tu t'attaque pas à la modélisation de bagnole de suite smile .
Voilà  quelques temps que je bosse sur Blender et je peine encore pour modéliser ce genre de truc.
Courage.
Pour finir, Blender ... c'est de la balle wink

Moi, j'en suis là :

https://debian-facile.org/viewtopic.php?id=7475
https://debian-facile.org/viewtopic.php?id=9369
https://debian-facile.org/viewtopic.php?id=10495

#12 Re : -1 »  Dessiner un trait ou un rectancle avec Gimp ? » Le 11/11/2015, à 09:59

golgot200
Réponses : 10
Hub_untu a écrit :

En fait ces histoires de calques chez Gimp m'est complètement inutile & gainant

Totalement indispensable, (Si on utilise Gimp pour ce qu'il est fait) wink
Gimp est un magnifique programme.

#13 Re : -1 »  Conversion DTS en FLAC (XCFA?) » Le 12/10/2015, à 09:22

golgot200
Réponses : 3

Bonjour

Avec avconv par exemple.

pour moi -threads 2 (core2duo)
avconv -threads 2 -i TON_FICHIER.dts -acodec ac3 -ab 640k -y audio.ac3
avconv -i audio.ac3 -ac 6 audio.flac

#14 Re : -1 »  Conversion DTS en FLAC (XCFA?) » Le 16/10/2015, à 18:56

golgot200
Réponses : 3

Oui, qu'en est-il ?

#15 Re : -1 »  Problème lors de création de fichier sous Blender » Le 01/10/2015, à 12:26

golgot200
Réponses : 1

Bonjour,

Une question bête,  où vois-tu la fonction "créer de nouveaux fichiers" ?  wink

Il y a open, open recents (*.blend) , et save, save as.

#16 Re : -1 »  Mesurer qualité vidéo » Le 11/09/2015, à 22:14

golgot200
Réponses : 7

Bonsoir,

avconv i TAVIDEO

ou

ffmpeg -i TAVIDEO

Exemple sur une vidéo :
Les Experts Mettent En Garde - Ne Touchez Pas À Windows 10

avconv version 11.4-6:11.4-1~deb8u1, Copyright (c) 2000-2014 the Libav developers
  built on Jun  4 2015 19:39:02 with gcc 4.9.2 (Debian 4.9.2-10)
Input #0, matroska,webm, from 'Les Experts Mettent En Garde - Ne Touchez Pas À Windows 10 !.mkv':
  Metadata:
    ENCODER         : Lavf56.1.0
  Duration: 00:07:34.57, start: 0.000000, bitrate: N/A
    Stream #0.0(eng): Video: vp9, yuv420p, 1920x1080, PAR 1:1 DAR 16:9, 25 fps, 1k tbn (default)
    Stream #0.1(und): Audio: aac, 44100 Hz, stereo, fltp (default)
    Metadata:
      CREATION_TIME   : 2015-09-05 06:40:47
      LANGUAGE        : und
At least one output file must be specified

Ou mediainfo :

apt-get install mediainfo
mediainfo PLUSIEURS_VIDEOS
patrick@debian:~/Bureau$ mediainfo *.mkv *.mp4
General
Unique ID                                : 261343648999294334758494431534920221359 (0xC49CF4B85F9FBEF610A26832D983C2AF)
Complete name                            : Les Experts Mettent En Garde - Ne Touchez Pas À Windows 10 !.mkv
Format                                   : Matroska
Format version                           : Version 2
File size                                : 70.2 MiB
Duration                                 : 7mn 34s
Overall bit rate                         : 1 296 Kbps
Writing application                      : Lavf56.1.0
Writing library                          : Lavf56.1.0

Video
ID                                       : 1
Format                                   : VP9
Codec ID                                 : V_VP9
Duration                                 : 7mn 34s
Width                                    : 1 920 pixels
Height                                   : 1 080 pixels
Display aspect ratio                     : 16:9
Frame rate mode                          : Constant
Frame rate                               : 25.000 fps
Language                                 : English
Default                                  : Yes
Forced                                   : No

Audio
ID                                       : 2
Format                                   : AAC
Format/Info                              : Advanced Audio Codec
Format profile                           : LC
Codec ID                                 : A_AAC
Duration                                 : 7mn 34s
Channel(s)                               : 2 channels
Channel positions                        : Front: L R
Sampling rate                            : 44.1 KHz
Compression mode                         : Lossy
Default                                  : Yes
Forced                                   : No
Encoded date                             : UTC 2015-09-05 06:40:47

General
Complete name                            : L.E.J. - Survivor (Destiny's Child Cover).mp4
Format                                   : MPEG-4
Format profile                           : Base Media
Codec ID                                 : isom
File size                                : 69.4 MiB
Duration                                 : 3mn 24s
Overall bit rate mode                    : Variable
Overall bit rate                         : 2 855 Kbps
Encoded date                             : UTC 2015-04-21 09:29:46
Tagged date                              : UTC 2015-04-21 09:29:46
Writing application                      : Lavf56.1.0

Video
ID                                       : 1
Format                                   : AVC
Format/Info                              : Advanced Video Codec
Format profile                           : High@L4.0
Format settings, CABAC                   : Yes
Format settings, ReFrames                : 3 frames
Codec ID                                 : avc1
Codec ID/Info                            : Advanced Video Coding
Duration                                 : 3mn 23s
Bit rate                                 : 2 598 Kbps
Width                                    : 1 920 pixels
Height                                   : 1 080 pixels
Display aspect ratio                     : 16:9
Frame rate mode                          : Constant
Frame rate                               : 29.970 fps
Color space                              : YUV
Chroma subsampling                       : 4:2:0
Bit depth                                : 8 bits
Scan type                                : Progressive
Bits/(Pixel*Frame)                       : 0.042
Stream size                              : 63.2 MiB (91%)
Encoded date                             : UTC 2015-04-21 09:29:46
Tagged date                              : UTC 2015-04-21 09:29:46

Audio
ID                                       : 2
Format                                   : AAC
Format/Info                              : Advanced Audio Codec
Format profile                           : LC
Codec ID                                 : 40
Duration                                 : 3mn 24s
Bit rate mode                            : Variable
Bit rate                                 : 254 Kbps
Channel(s)                               : 2 channels
Channel positions                        : Front: L R
Sampling rate                            : 44.1 KHz
Compression mode                         : Lossy
Stream size                              : 6.17 MiB (9%)
Encoded date                             : UTC 2015-04-21 09:29:46
Tagged date                              : UTC 2015-04-21 09:29:46


patrick@debian:~/Bureau$ 

#17 Re : -1 »  Mesurer qualité vidéo » Le 16/09/2015, à 05:36

golgot200
Réponses : 7

Dans ce sens, c'est vrai que l'on aussi avoir un mkv de petite taille mais avec une qualité parfois meilleur qu'un gros fichier de même type. Trouver un programme qui te dira que celui-ci est plus joli qu'un autre, mis à par le logiciel "oeil humain et histoire de goûts", je ne vois pas smile

#18 Re : -1 »  vos creations blender » Le 27/05/2015, à 20:22

golgot200
Réponses : 581

Salut willcoyote,

Même avec les protections ?  sad

#19 Re : -1 »  vos creations blender » Le 28/05/2015, à 09:05

golgot200
Réponses : 581

C'est assez impressionnant tout de même qu'il n'est pas rectifié le tir !!! neutral

#20 Re : -1 »  vos creations blender » Le 08/06/2015, à 11:22

golgot200
Réponses : 581

Bonjour,

Des fraises :

1433755139.png

#21 Re : -1 »  vos creations blender » Le 21/06/2015, à 23:25

golgot200
Réponses : 581

smile

Début d'une Porsche 550 Spider :

1434921768.png

#22 Re : -1 »  [résolu] SMPlayer plante: MPlayer s'est mal terminé. Code de sortie 1 » Le 09/06/2015, à 09:44

golgot200
Réponses : 22

Bonjour,

je ne suis pas sur Ubuntu mais Debian.
Pourquoi ne pas désinstaller mplayer ou mplayer2 et le remplacer maintenant par mpv et installer la version de smplayer qui prend en charge mpv ?
mpv doit bien être dans vos dépots et vraiment plus propre.

#23 Re : -1 »  [résolu] SMPlayer plante: MPlayer s'est mal terminé. Code de sortie 1 » Le 09/06/2015, à 16:13

golgot200
Réponses : 22
xabilon a écrit :

Tu ne perds rien à essayer. Pour ça, il faut installer mpv, lancer Smplayer et aller dans "Options > Préférences"
Puis dans la case "Exécutable mplayer/mpv" choisir /usr/bin/mpv

Tout est dit smile

"Options > Préférences"
mpv suffit.

A l'installation de mpv ( mais je ne suis pas sûr), ça te virera automatiquement mplayer ou mplayer2
Rien ne t'empêche aussi de créer le deb de smplayer ( les sources sur les site) grace au script create.deb situé dans le dossier décompacté. Tu auras ainsi les dernières sources. A moins que sur Ubuntu tu ai un PPA  déclaré dans tes dépôts.

#24 Re : -1 »  [résolu] SMPlayer plante: MPlayer s'est mal terminé. Code de sortie 1 » Le 10/06/2015, à 13:33

golgot200
Réponses : 22

Le pilote de sortie dans les options vidéo de smplayer, tu es sur quoi ? vdpau ou xv si vdpau passe en xv pour voir.
Tu as quoi comme pilotes graphiques ?

Essaie avec un fichier autre que du mp4, un avi etc pour voir.

Essaie au cas ou de virer le .smplayer, le .mplayer, le .mplayer2 et pourquoi pas le .mpv dans les config de ton home et dans la foulé de lire un fichier vidéo autre que tes mp4 pour l'instant.