Contenu | Rechercher | Menus

Annonce

Si vous rencontrez des soucis à rester connecté sur le forum (ou si vous avez perdu votre mot de passe) déconnectez-vous et reconnectez-vous depuis cette page, en cochant la case "Me connecter automatiquement lors de mes prochaines visites".
nombre réponses : 25

#0 Re : -1 »  [dPluzz+] Télécharger les vidéos Pluzz et C+ sous 14.xx/13.10/12.04 » Le 22/03/2015, à 23:50

ub821
Réponses : 1064

Comme cela :

:~$ dpluzz-cli -f -d /home/bernard/DocPerso/Videos/ -u http://pluzz.francetv.fr/videos/jt_1920_limousin_,120494538.html
DEBUT DU TRAITEMENT
-->RECUPERATION DU JSON
-->TRAITEMENT DU JSON
-->RECUPERATION DU FICHIER VIDEO AVEC VOS PARAMÈTRES: FFMPEG / AAC
Duration: 00:16:22.00, start: 10.101000, bitrate: N/A
Output #0, matroska, to '/home/bernard/DocPerso/Videos/jt_1920_limousin_120494538.mkv':

FIN DU TRAITEMENT
Votre Fichier Final Est: (Sauf s'il est renommé par le GUI!)
/home/bernard/DocPerso/Videos/jt_1920_limousin_120494538.mkv

:~$ 

sur cet ordi, je peux faire pas mal de chose, puisque je le teste pour une future sauvegarde... donc, si tu penses qu'il manque quelque chose, demandes moi wink

#1 Re : -1 »  [dPluzz+] Télécharger les vidéos Pluzz et C+ sous 14.xx/13.10/12.04 » Le 23/03/2015, à 00:06

ub821
Réponses : 1064

En tous les cas, MERCI smile

Demain sera un autre jour wink

#2 Re : -1 »  [dPluzz+] Télécharger les vidéos Pluzz et C+ sous 14.xx/13.10/12.04 » Le 23/03/2015, à 11:43

ub821
Réponses : 1064

Bonjour Gaara et Merci de ton temps smile

Gaara a écrit :

Bonjour,

Il faudrait que tu me donnes quelques infos, je vais essayer avec Debian Wheezy en VM, mais sous les mêmes conditions.
- Quel est ton environnement de bureau (Gnome shell, mate, kde..) ?
- x64 (64 bits) ou i386 (32 bits) ? (ceci dit je ne peux essayer qu'en 32 bits)

Mon environnement est XFCE 4.8, donc le basique !

Et moi aussi, j'suis en 32bits... mon bon coucou a plus de 10 ans wink

sur l'autre ordi, je suis en 64 bits, et même environnement, et ça ne fonctionne pas mieux !

concernant ce paquet : libavcodec-extra-53 il m'a fichu une pagaille... parce qu'il était cassé !

en le "réparant", il voulait toujours me supprimer tous les paquets indiqués précédemment... !

alors, je l'ai supprimé, lui tout seul !

puis tenté de le réinstaller, mais itou... aussitôt il se casse, et refiche la pagaille !

Or, s'il le faut absolument, ça ne va pas le faire !


Si l'un, d'entre vous, pouvait me charger le doc de fr3, je l'en remercie d'avance smile

et dire qu'ils font cela avec nos pépettes... sad

#3 Re : -1 »  [dPluzz+] Télécharger les vidéos Pluzz et C+ sous 14.xx/13.10/12.04 » Le 23/03/2015, à 12:06

ub821
Réponses : 1064

Merci smile

Pour Debian à la place de Lubuntu, je l'ai testé, et il m'avait déplu... il m'avait semblé trop lourd, pour mon ordi !

Lenteur d'affichage, etc... alors qu'en wheezy, ça a été fluide dés le début !

d'où mon choix wink

#4 Re : -1 »  [dPluzz+] Télécharger les vidéos Pluzz et C+ sous 14.xx/13.10/12.04 » Le 23/03/2015, à 16:52

ub821
Réponses : 1064

Merci Gaara d'avoir pris le temps de tester smile

je vais le faire sur l'ordi plus récent... et voir ce qui coince, comme l'install est toute récente, voir les paquets qui coincent, éventuellement smile

je reviendrai indiquer ce qui coinçait smile

Encore Merci smile

#5 Re : -1 »  [dPluzz+] Télécharger les vidéos Pluzz et C+ sous 14.xx/13.10/12.04 » Le 23/03/2015, à 18:31

ub821
Réponses : 1064

Bonjour Melixgaro smile

question 1 : oui, l'intégralité, rien oublié wink

question 2 : aucune vidéo

question 3 : j'suis en Limousin wink

Comme je l'indique à Gaara, je teste sur un autre ordi, plus récent, toujours en wheezy, install toute "neuve" et après le test de chargement, un p'tit fichier en .mkv de 622 octets !

et lorsque je le lance, rien ne s'affiche, bien entendu... !

#6 Re : -1 »  [dPluzz+] Télécharger les vidéos Pluzz et C+ sous 14.xx/13.10/12.04 » Le 24/03/2015, à 21:15

ub821
Réponses : 1064

smile

Je viens de charger les nouveaux paquets..; bon sur mon "ancien" ordi, toujours identique... codec cassé !

je vais sur l'ordi plus récent...

Bonne soirée et Merci pour Tout smile

#7 Re : -1 »  [dPluzz+] Télécharger les vidéos Pluzz et C+ sous 14.xx/13.10/12.04 » Le 25/03/2015, à 12:11

ub821
Réponses : 1064

voilà ce que ça donne sur l'ordi plus récent et à jour de dpluzz
[capturedcran-25032015-111041.png

edit : c'est un peu plus lisible... wink

#8 Re : -1 »  [dPluzz+] Télécharger les vidéos Pluzz et C+ sous 14.xx/13.10/12.04 » Le 25/03/2015, à 19:41

ub821
Réponses : 1064

me r'v'la smile

voici les retours du terminal :

bernard@debianPortable:~$ dpluzz -d
Debug Mode
DISTRIBUTION: ('debian', '7.8', '')
ENVIRONNEMENT: None
-> Pour avoir un retour complet du téléchargement, veuillez essayer cette ligne dans un terminal:
ffmpeg -y -i http://ftvodhdsecz-f.akamaihd.net/i/streaming-adaptatif/2015/S13/J2/120493421-1427222942-20150324-,398k,632k,934k,.mp4.csmil/index_2_av.m3u8?null= -vcodec copy -acodec copy /home/bernard/DocPerso/Videos/essai.mkv

^CTraceback (most recent call last):
  File "/usr/bin/dpluzz", line 251, in download
    time.sleep(1)
KeyboardInterrupt

je suis ce que tu as indiqué et ce qu'il indique :

bernard@debianPortable:~$ ffmpeg -y -i http://ftvodhdsecz-f.akamaihd.net/i/streaming-adaptatif/2015/S13/J2/120493421-1427222942-20150324-,398k,632k,934k,.mp4.csmil/index_2_av.m3u8?null= -vcodec copy -acodec copy /home/bernard/DocPerso/Videos/essai.mkv
ffmpeg version 0.8.17-6:0.8.17-1, Copyright (c) 2000-2014 the Libav developers
  built on Mar 15 2015 17:31:12 with gcc 4.7.2
The ffmpeg program is only provided for script compatibility and will be removed
in a future release. It has been deprecated in the Libav project to allow for
incompatible command line syntax improvements in its replacement called avconv
(see Changelog for details). Please use avconv instead.
[applehttp @ 0x8c04c60] Estimating duration from bitrate, this may be inaccurate
Input #0, applehttp, from 'http://ftvodhdsecz-f.akamaihd.net/i/streaming-adaptatif/2015/S13/J2/120493421-1427222942-20150324-,398k,632k,934k,.mp4.csmil/index_2_av.m3u8?null=':
  Duration: 00:07:19.00, start: 10.101000, bitrate: N/A
    Stream #0.0: Video: h264 (Main), yuv420p, 704x396 [PAR 1:1 DAR 16:9], 25 tbr, 90k tbn, 50 tbc
    Stream #0.1: Audio: aac, 48000 Hz, stereo, s16
Output #0, matroska, to '/home/bernard/DocPerso/Videos/essai.mkv':
  Metadata:
    encoder         : Lavf53.21.1
    Stream #0.0: Video: libx264, yuv420p, 704x396 [PAR 1:1 DAR 16:9], q=2-31, 1k tbn, 25 tbc
    Stream #0.1: Audio: libvo_aacenc, 48000 Hz, stereo
Stream mapping:
  Stream #0.0 -> #0.0
  Stream #0.1 -> #0.1
Press ctrl-c to stop encoding
[matroska @ 0x8c87b80] Application provided invalid, non monotonically increasing dts to muxer in stream 1: 5 >= 5
av_interleaved_write_frame(): Invalid argument
bernard@debianPortable:~$ 

ça t'aide ?

je préfère faire des suppressions, modifs, etc... sur le portable, qui n'est pas encore en "activité", que sur le fixe smile
Merci du coup de main smile

#9 Re : -1 »  [dPluzz+] Télécharger les vidéos Pluzz et C+ sous 14.xx/13.10/12.04 » Le 27/03/2015, à 00:23

ub821
Réponses : 1064

Bonsoir smile

Je viens de charger une autre vidéo, sur l'ordi récent, et c'est nickel smile

Merci aux développeurs smile

Je vais tenter maintenant de l'installer sur le fixe, l'ancien... où il faut supprimer, puis réinstaller un paquet de paquets... wink

Bonne soirée smile
Bernard

#10 Re : -1 »  [dPluzz+] Télécharger les vidéos Pluzz et C+ sous 14.xx/13.10/12.04 » Le 25/03/2015, à 21:22

ub821
Réponses : 1064

smile

voilà le résultat :

bernard@debianPortable:~$ ffmpeg -y -i http://ftvodhdsecz-f.akamaihd.net/i/streaming-adaptatif/2015/S13/J2/120493421-1427222942-20150324-,398k,632k,934k,.mp4.csmil/index_2_av.m3u8?null= -vcodec libx264 -acodec copy /home/bernard/DocPerso/Videos/essai.mkv
ffmpeg version 0.8.17-6:0.8.17-1, Copyright (c) 2000-2014 the Libav developers
  built on Mar 15 2015 17:31:12 with gcc 4.7.2
The ffmpeg program is only provided for script compatibility and will be removed
in a future release. It has been deprecated in the Libav project to allow for
incompatible command line syntax improvements in its replacement called avconv
(see Changelog for details). Please use avconv instead.
[applehttp @ 0x9aa9c60] Estimating duration from bitrate, this may be inaccurate
Input #0, applehttp, from 'http://ftvodhdsecz-f.akamaihd.net/i/streaming-adaptatif/2015/S13/J2/120493421-1427222942-20150324-,398k,632k,934k,.mp4.csmil/index_2_av.m3u8?null=':
  Duration: 00:07:19.00, start: 10.101000, bitrate: N/A
    Stream #0.0: Video: h264 (Main), yuv420p, 704x396 [PAR 1:1 DAR 16:9], 25 tbr, 90k tbn, 50 tbc
    Stream #0.1: Audio: aac, 48000 Hz, stereo, s16
[buffer @ 0x9c613a0] w:704 h:396 pixfmt:yuv420p
[libx264 @ 0x9c101e0] using SAR=1/1
[libx264 @ 0x9c101e0] using cpu capabilities: MMX2 SSE2Fast SSSE3 FastShuffle SSE4.1 Cache64
[libx264 @ 0x9c101e0] profile Main, level 3.0
[libx264 @ 0x9c101e0] 264 - core 123 r2189 35cf912 - H.264/MPEG-4 AVC codec - Copyleft 2003-2012 - http://www.videolan.org/x264.html - options: cabac=1 ref=3 deblock=1:0:0 analyse=0x1:0x111 me=hex subme=7 psy=1 psy_rd=1.00:0.00 mixed_ref=0 me_range=16 chroma_me=1 trellis=1 8x8dct=0 cqm=0 deadzone=21,11 fast_pskip=1 chroma_qp_offset=-2 threads=1 sliced_threads=0 nr=0 decimate=1 interlaced=0 bluray_compat=0 constrained_intra=0 bframes=3 b_pyramid=0 b_adapt=1 b_bias=0 direct=1 weightb=0 open_gop=1 weightp=2 keyint=250 keyint_min=25 scenecut=40 intra_refresh=0 rc_lookahead=40 rc=crf mbtree=1 crf=23.0 qcomp=0.60 qpmin=0 qpmax=69 qpstep=4 ip_ratio=1.25 aq=1:1.00
Output #0, matroska, to '/home/bernard/DocPerso/Videos/essai.mkv':
  Metadata:
    encoder         : Lavf53.21.1
    Stream #0.0: Video: libx264, yuv420p, 704x396 [PAR 1:1 DAR 16:9], q=-1--1, 1k tbn, 25 tbc
    Stream #0.1: Audio: libvo_aacenc, 48000 Hz, stereo
Stream mapping:
  Stream #0.0 -> #0.0
  Stream #0.1 -> #0.1
Press ctrl-c to stop encoding
[matroska @ 0x9b2cc60] Application provided invalid, non monotonically increasing dts to muxer in stream 1: 5 >= 5
av_interleaved_write_frame(): Invalid argument
bernard@debianPortable:~$ 

ça te permet de mieux cibler "mon" souci ?

Merci d'avance:)

#11 Re : -1 »  [dPluzz+] Télécharger les vidéos Pluzz et C+ sous 14.xx/13.10/12.04 » Le 28/03/2015, à 19:29

ub821
Réponses : 1064

toujours sur le "récent", test sur canal; nickel smile

Encore Merci wink

Maintenant, je cherche comment isoler une scène... j'avais bien avidemux, mais par je ne sais quelle co... rie, il déco... ne !!! donc inexploitable !

Si vous avez un bon prog à me conseiller, j'suis preneur, juste un nom, puisque nous ne sommes pas sur le forum à dés quoi... wink !

Merci d'avance smile
Bernard

#12 Re : -1 »  [dPluzz+] Télécharger les vidéos Pluzz et C+ sous 14.xx/13.10/12.04 » Le 29/03/2015, à 10:35

ub821
Réponses : 1064

Bonjour smile

Merci smile

J'ai testé kdenlive, et ne trouve pas comment découper une scène... dommage que avidemux... mais bon... ce n'est pas la discussion appropriée pour que je fasse des remarques... oups smile

Je vais retester d'autres prog smile

#13 Re : -1 »  [dPluzz+] Télécharger les vidéos Pluzz et C+ sous 14.xx/13.10/12.04 » Le 03/04/2015, à 22:59

ub821
Réponses : 1064

smile

Merci Ynad wink

Je l'ai testé, et n'ai pas réussi à couper la vidéo...

il plantait...

En définitif, et en cherchant, j'ai trouvé comment faire avec mencoder, et je l'ai fait en ligne de commande smile
découpé à la seconde près,  nickel smile

Dommage qu'avidemux ne fonctionne plus aussi bien... c'est ce que j'obtenais... à la seconde près smile

#14 Re : -1 »  [dPluzz+] Télécharger les vidéos Pluzz et C+ sous 14.xx/13.10/12.04 » Le 25/03/2015, à 23:48

ub821
Réponses : 1064

première ligne :

bernard@debianPortable:~$ avconv -y -i http://ftvodhdsecz-f.akamaihd.net/i/streaming-adaptatif/2015/S13/J2/120493421-1427222942-20150324-,398k,632k,934k,.mp4.csmil/index_2_av.m3u8?null= -vcodec libx264 -acodec copy /home/bernard/DocPerso/Videos/essai.mkv
avconv version 0.8.17-6:0.8.17-1, Copyright (c) 2000-2014 the Libav developers
  built on Mar 15 2015 17:31:12 with gcc 4.7.2
[applehttp @ 0x8ca8c60] Estimating duration from bitrate, this may be inaccurate
Input #0, applehttp, from 'http://ftvodhdsecz-f.akamaihd.net/i/streaming-adaptatif/2015/S13/J2/120493421-1427222942-20150324-,398k,632k,934k,.mp4.csmil/index_2_av.m3u8?null=':
  Duration: 00:07:19.00, start: 10.101000, bitrate: N/A
    Stream #0.0: Video: h264 (Main), yuv420p, 704x396 [PAR 1:1 DAR 16:9], 25 tbr, 90k tbn, 50 tbc
    Stream #0.1: Audio: aac, 48000 Hz, stereo, s16
[buffer @ 0x8d1a7e0] w:704 h:396 pixfmt:yuv420p
[libx264 @ 0x8d1a3e0] using SAR=1/1
[libx264 @ 0x8d1a3e0] using cpu capabilities: MMX2 SSE2Fast SSSE3 FastShuffle SSE4.1 Cache64
[libx264 @ 0x8d1a3e0] profile Main, level 3.0
[libx264 @ 0x8d1a3e0] 264 - core 123 r2189 35cf912 - H.264/MPEG-4 AVC codec - Copyleft 2003-2012 - http://www.videolan.org/x264.html - options: cabac=1 ref=3 deblock=1:0:0 analyse=0x1:0x111 me=hex subme=7 psy=1 psy_rd=1.00:0.00 mixed_ref=0 me_range=16 chroma_me=1 trellis=1 8x8dct=0 cqm=0 deadzone=21,11 fast_pskip=1 chroma_qp_offset=-2 threads=3 sliced_threads=0 nr=0 decimate=1 interlaced=0 bluray_compat=0 constrained_intra=0 bframes=3 b_pyramid=0 b_adapt=1 b_bias=0 direct=1 weightb=0 open_gop=1 weightp=2 keyint=250 keyint_min=25 scenecut=40 intra_refresh=0 rc_lookahead=40 rc=crf mbtree=1 crf=23.0 qcomp=0.60 qpmin=0 qpmax=69 qpstep=4 ip_ratio=1.25 aq=1:1.00
Output #0, matroska, to '/home/bernard/DocPerso/Videos/essai.mkv':
  Metadata:
    encoder         : Lavf53.21.1
    Stream #0.0: Video: libx264, yuv420p, 704x396 [PAR 1:1 DAR 16:9], q=-1--1, 1k tbn, 25 tbc
    Stream #0.1: Audio: libvo_aacenc, 48000 Hz, stereo
Stream mapping:
  Stream #0:0 -> #0:0 (h264 -> libx264)
  Stream #0:1 -> #0:1 (copy)
Press ctrl-c to stop encoding
[matroska @ 0x8e0f0a0] Application provided invalid, non monotonically increasing dts to muxer in stream 1: 5 >= 5
av_interleaved_write_frame(): Invalid argument
bernard@debianPortable:~$ 

Rien...

seconde ligne :

bernard@debianPortable:~$ avconv -y -i http://ftvodhdsecz-f.akamaihd.net/i/streaming-adaptatif/2015/S13/J2/120493421-1427222942-20150324-,398k,632k,934k,.mp4.csmil/index_2_av.m3u8?null= -strict experimental -vcodec copy -acodec aac /home/bernard/DocPerso/Videos/essai.mkv
avconv version 0.8.17-6:0.8.17-1, Copyright (c) 2000-2014 the Libav developers
  built on Mar 15 2015 17:31:12 with gcc 4.7.2
[applehttp @ 0x9bddc60] Estimating duration from bitrate, this may be inaccurate
Input #0, applehttp, from 'http://ftvodhdsecz-f.akamaihd.net/i/streaming-adaptatif/2015/S13/J2/120493421-1427222942-20150324-,398k,632k,934k,.mp4.csmil/index_2_av.m3u8?null=':
  Duration: 00:07:19.00, start: 10.101000, bitrate: N/A
    Stream #0.0: Video: h264 (Main), yuv420p, 704x396 [PAR 1:1 DAR 16:9], 25 tbr, 90k tbn, 50 tbc
    Stream #0.1: Audio: aac, 48000 Hz, stereo, s16
Output #0, matroska, to '/home/bernard/DocPerso/Videos/essai.mkv':
  Metadata:
    encoder         : Lavf53.21.1
    Stream #0.0: Video: libx264, yuv420p, 704x396 [PAR 1:1 DAR 16:9], q=2-31, 1k tbn, 90k tbc
    Stream #0.1: Audio: libvo_aacenc, 48000 Hz, stereo, s16, 200 kb/s
Stream mapping:
  Stream #0:0 -> #0:0 (copy)
  Stream #0:1 -> #0:1 (aac -> aac)
Press ctrl-c to stop encoding
frame=10729 fps=337 q=-1.0 Lsize=   49673kB time=429.12 bitrate= 948.3kbits/s    
video:39256kB audio:10198kB global headers:0kB muxing overhead 0.442813%
bernard@debianPortable:~$ 

ça a fonctionné... j'ai une vidéo de 48Mo !

C'était un essai, réussi smile

que puis-je faire maintenant avec dpluzz ?
smile

#15 Re : -1 »  OpenShot Video Editor ultime éditeur vidéo de gnome » Le 28/03/2015, à 22:02

ub821
Réponses : 1388

Bonsoir smile

Le logiciel est-il toujours suivi ?

Je souhaite extraire une scène d'un reportage vidéo, est-ce le bon logiciel ?

Je l'ai chargé, ouvert, mais je ne "vois" pas comment couper l'extrait !

Mais, je me trompe peut-être... ?

A bientôt de vous lire :-)

ps : il s'est planté au cours de mes "manipulations"... surement contrarié... big_smile

Cordialement
Bernard

#16 Re : -1 »  OpenShot Video Editor ultime éditeur vidéo de gnome » Le 28/03/2015, à 23:25

ub821
Réponses : 1388

smile

Je te remercie pour le retour du plantage... comme je ne trouve pas comment découper ce que je veux, alors qu'avec avidemux, c'était intuitif, je le désinstalle !

Je vais rechercher autre chose smile

#17 Re : -1 »  OpenShot Video Editor ultime éditeur vidéo de gnome » Le 29/03/2015, à 10:10

ub821
Réponses : 1388

smile

Parce que pour extraire une scène d'une vidéo, je ne peux plus parcourir la vidéo, avec le curseur, je suis obligé de lire la vidéo... et de mettre les marqueurs départs et fin, lorsqu'ils veulent bien s'activer... tu imagines le temps que cela prend... ? lorsque cela fonctionne... ! et quand ça déc... oups...  "plaisante" le temps ne se compte plus... yikes

Avidemux a, ainsi, perdu toute son originalité !

voilà le pourquoi de ma recherche smile

#18 Re : -1 »  Matériel ordi fixe, en prévision » Le 19/04/2015, à 11:14

ub821
Réponses : 15

Merci à vous deux, pour vos retours smile

Il est exact que c'est pour un ordi fixe smile

Et suis loin d'être joueur... très loin, pour éviter de dire que je déteste ça... yikes  smile

Pour résumer, un bon processeur Intel, dans les dernière génération i3-5 voire le i7... en me passant de carte graph... ça peut être jouable, avec carte graphique intégrée, serait "la" bonne solution à ma "demande" de retouche photo ?

Ici, en Limousin, le Soleil pousse ... écarte les nuages, qui tentent de refuser son passage, mais il est le plus fort... big_smile

Beau Dimanche smile

#19 Re : -1 »  Matériel ordi fixe, en prévision » Le 19/04/2015, à 11:52

ub821
Réponses : 15

smile

En souhaitant que les prix se tassent un peu... même beaucoup... ça ne fait... qu'une carte mère, un proc avec un bon ventilo, je vais regarder si mon alim de 600« colle, avec ses connecteurs !

Ah... j'serai heureux s'il n'y avait que deux éléments... smile


Pour les retouches, j'utilise gimp !

#20 Re : -1 »  Matériel ordi fixe, en prévision » Le 19/04/2015, à 13:07

ub821
Réponses : 15

smile

Ah... !!!

Vous ne semblez pas d'accord... !

C'est un fixe, donc pas la peine de parler de portable, pour l'instant wink

Donc, la préconisation serait = un processeur + une carte graphique !

Et non, un processeur embarquant une carte graphique !

Ce qui est dommage, c'est que les processeurs Intel, sont pratiquement tous avec carte graph embarquée... !

je lis sur wiki, la partie i5 Haswell, et ne vois pas, sans carte graph...

#21 -1 »  Matériel ordi fixe, en prévision » Le 19/04/2015, à 10:27

ub821
Réponses : 15

Bonjour à Toutes et Tous smile

Comme mon bon vieil ordi fixe, commence à montrer des signes de faiblesses, surtout dans le traitement de photos, que j'utilise de plus en plus pour mon site, je commence à réfléchir à du matériel à venir !

Je ne suis pas pressé, loin de là, cependant, je souhaiterai avoir de vos retours sur du matériel :
+ carte mère (actuellement Asus depuis près de 11/12ans...P4P800) , qui accepte les processeurs Intel (constat : jusqu'à ce jour, ultra satisfait de mon bon vieux Pentium 4C en 2.6Ghz smile qui chauffe très peu, et accepte la gestion de la vitesse de son ventilo )

+ carte graph, qui accepterait un écran tv, en 1080 (ça suffit... le 4K sera dans la prochaine 20aine d'années... wink )

+ prises : ethernet que je préfère au wifi...

+ plusieurs prise usb,

Voilà, un premier jet pour cette future éventualité !

Merci de vos retours matériel smile

Bon Dimanche Ensoleillé smile

Bernard

#22 Re : -1 »  Matériel ordi fixe, en prévision » Le 19/04/2015, à 16:23

ub821
Réponses : 15

smile

Merci pour vos retours wink

Je comparais mon p'tit P4 2.6Ghz aux Haswell... et j'en étais venu à la même "idée" que Ciste44, commencer par un proc seul !

Cependant, je ferai gaffe à ce que tu indiques F50, concernant le chipset, que je préférerai Nvidia... mais bon... si impossible... je ferai avec !

#23 Re : -1 »  Matériel ordi fixe, en prévision » Le 19/04/2015, à 16:30

ub821
Réponses : 15

Pour l'instant, un seul chipset Nvidia... et tout le reste... INTEL , lu sur ldlc

Le choix va vite être fait smile

#24 Re : -1 »  Matériel ordi fixe, en prévision » Le 19/04/2015, à 17:49

ub821
Réponses : 15

Oh, je me presse... lentement smile

J'ai l'avantage d'avoir le temps et la patience smile

pour les pépettes, c'est autre chose yikes  mais, j'évite de me plaindre, il y a plus malheureux que nous smile