Contenu | Rechercher | Menus

Annonce

Si vous rencontrez des soucis à rester connecté sur le forum (ou si vous avez perdu votre mot de passe) déconnectez-vous et reconnectez-vous depuis cette page, en cochant la case "Me connecter automatiquement lors de mes prochaines visites".
nombre réponses : 25

#0 Re : -1 »  (LXVI) Disputationibus noctuis (qui vigilate te salutat) » Hier à 03:20

smo
Réponses : 3999

ola

kanor

t ai fait un mail sur jabber tu peux regarder stp.... (j reposte ici au cas ou tu le lirai plus ce mail..)

thanks

#1 Re : -1 »  StreamStudio, application streaming youtube/dailymotion/torrents... » Le 21/01/2015, à 22:53

smo
Réponses : 1256

hummm je reproduis pas le pb babytux

sur quel torrent t as ça exactement ? (et quel download) tongue )

#2 Re : -1 »  StreamStudio, application streaming youtube/dailymotion/torrents... » Le 21/01/2015, à 23:42

smo
Réponses : 1256

oué bah ca vient pas de ss baby ;p sorry rien d anormal dans ton log ...

non pas de X cdj tongue

noté J5012

++

#3 Re : -1 »  StreamStudio, application streaming youtube/dailymotion/torrents... » Hier à 02:46

smo
Réponses : 1256

ola

merci de supprimer tous vos messages sur cette discution svp J5012/beaver/babytux

je vais faire le conciliateur ... nous veillerons a ne pas laisser les titres des fichiers issus du debug (comme je l avais déjà répondu, pas besoin d en rajouter...) ce que je peut comprendre par contre on peut reporter quelque chose sans non plus en faire trop à moins d'être modo officiel, sinon on passe par les outils mis en place pour cela et les personnes concernées jugeront ,  c est mon point de vue.

voilà on en reste là svp, pas de bad vibes ici y en a jamais eu et ça ne commencera pas smile


sylnanoa, peux tu ressayer le download stp ? et noté pour le reste wink (t es en wifi pour pour envoyer sur la tv? essayes en ethernet si oui)

++

#4 Re : -1 »  StreamStudio, application streaming youtube/dailymotion/torrents... » Hier à 15:15

smo
Réponses : 1256

ola

merci kanor pour les precisions smile

bon bien hormis les retours de sylanoa un moment qu on a pas eu de retour de bugs beaver.... smile

++

#5 Re : -1 »  StreamStudio, application streaming youtube/dailymotion/torrents... » Hier à 15:39

smo
Réponses : 1256

ola babytux

ok cool, je pense pas qu il reste beaucoup de bugs ou des petits trucs bien vicieux alors smile on va attendre demain

pas fan du logo perso faut que je relance le graphiste qui m avait contacté à ce popos...

merci smile

#6 Re : -1 »  StreamStudio, application streaming youtube/dailymotion/torrents... » Hier à 15:46

smo
Réponses : 1256

sylanoa

je ne peut pas faire de choix de sortie audio avec ce soft ... par contre j ai le meme systeme que toi suffit de faire ça au niveau systeme... windows ou linux changes juste de crate audio et voilà smile

je ferai les live dailymotion et peut être youtube cet après midi je pense

++

#7 Re : -1 »  StreamStudio, application streaming youtube/dailymotion/torrents... » Hier à 19:36

smo
Réponses : 1256

ola

yup je fais pareil avec un grand cable hdmi tongue

pu faire ton test sur un autre pc ?

quasi fini le live dailymotion smile

++

#8 Re : -1 »  StreamStudio, application streaming youtube/dailymotion/torrents... » Hier à 19:46

smo
Réponses : 1256

voila lives dailymotion terminés smile

#9 Re : -1 »  StreamStudio, application streaming youtube/dailymotion/torrents... » Hier à 23:45

smo
Réponses : 1256

ola

bon vu qu on a pas eu de retours particuliers et generaux sur des bugs de la 1.25.4 on la passe en stable

j up actuellement des version "testing" donc les liens seront différents

je les posteraient une fois terminé et le site sera mis à jour au passage

à toute

#10 Re : -1 »  StreamStudio, application streaming youtube/dailymotion/torrents... » Aujourd'hui à 00:49

smo
Réponses : 1256

hello

voilà maj online, sylanoa si tu veux tester le live dailymotion tu vas sur le site (streamstudio.me) tu downloads la version bêta et tu l installes dans un autre dossier ...

dans dailymotion tu verras un nouveau type de recherche, tu verras "directs"... essayes ton millenium par exemple et après ça marche comme twitch smile

++

#11 Re : -1 »  StreamStudio, application streaming youtube/dailymotion/torrents... » Aujourd'hui à 02:32

smo
Réponses : 1256

yup

vu je viens de corriger ça wink (vieux fichier le -testing....)

ca pointait pas sur le bon dossier...

++

#12 Re : -1 »  StreamStudio, application streaming youtube/dailymotion/torrents... » Aujourd'hui à 14:45

smo
Réponses : 1256

Ola sylanoa

Merci pour le retour smile

Le download ne marche pas sur quel moteur ?

Je sais pour la appdata je vais vois si c est possible avec innosetup et non y a pas d autre dossier

Ton autre PC est sur windows aussi ?

Et faut absolument que tu me montres des logs pour tes divers soucis sinon complique a debuger smile

++

#13 Re : -1 »  StreamStudio, application streaming youtube/dailymotion/torrents... » Aujourd'hui à 15:27

smo
Réponses : 1256

hummm

aucun pb de download chez moi youtube/dailymotion fichiers sont là et ouverture dossier ok

faut que je test sur Windows

#14 Re : -1 »  StreamStudio, application streaming youtube/dailymotion/torrents... » Aujourd'hui à 17:25

smo
Réponses : 1256

ola

sylanoa bon j suis sur windows seven aucun pb upnbp twitch ou daily... ca plante kedale pas moyen

essayes de changer otn ffmpeg

http://ffmpeg.zeranoe.com/builds/win32/ … -static.7z

et tu remplaces ffmpeg et ffprobe dans dossier streamstudio (c:/program files...) voir

++

#15 Re : -1 »  StreamStudio, application streaming youtube/dailymotion/torrents... » Aujourd'hui à 18:17

smo
Réponses : 1256

ok j vais voir ça apres j ai oublie

j ai corrige pas mal de ptit soucis d upnp sur windows la et mis a jour ffmpeg etc en train de balancer une maj (de la stable pas le choix)

pour le debug t appuies sur la touche d ca t ouvre uen fenetre, apres t appuies sur le petit icone en haut a droite un > avec 3 - superposes et tu verras les infos dans la console en bas tu m copies colles tout (ctrl+c)

++

#16 Re : -1 »  StreamStudio, application streaming youtube/dailymotion/torrents... » Aujourd'hui à 18:35

smo
Réponses : 1256

yup

bon j ai rajouté un fix pour ton : mais y aura d autres qui poseront pb alors... je trouve pas de liste de caracteres interdits sur windows

t auras ca dans la maj en cours

#17 Re : -1 »  StreamStudio, application streaming youtube/dailymotion/torrents... » Aujourd'hui à 18:45

smo
Réponses : 1256

bon j'ai trouvé un ptit module qui devrait corriger tous ces soucis de nom de fichier windows smile

inclus dans la maj (ptin d upload trop lent)

normalement ceux qui aveient des pb pour i lire leurs fichiers locaux par upnp sous windows ça devrait être corrigé aussi tongue

pour l audio (hors mp3) si on active le transcodage et upnp on voit meme la forme d onde affichée sur la tv comme sur le player streamstudio lol marrant

++

#18 Re : -1 »  StreamStudio, application streaming youtube/dailymotion/torrents... » Aujourd'hui à 19:05

smo
Réponses : 1256

tu lis sur ta freebox ou ta bravia ?

pareil sur les deux ?

on dirait qu il te lance plusieurs fois le flux en fait c est bizarre

on voit l encodage et en plein milieu t as un autre

rep stderr: [cli][info] Available streams: audio, high, low, medium, mobile (worst), source (best)
[cli][info] Opening stream: high (hls)

donc forcement y coupe

chelou

#19 Re : -1 »  StreamStudio, application streaming youtube/dailymotion/torrents... » Aujourd'hui à 19:08

smo
Réponses : 1256

oué t en as deux en meme temps Oo

grep stderr: frame=   82 fps= 27 q=25.0 size=    5314kB time=00:00:03.01 bitrate=14462.0kbits/s   
ht5server.js:428
grep stderr: frame=  309 fps= 29 q=25.0 size=   21065kB time=00:00:10.55 bitrate=16356.5kbits/s   
ht5server.js:428

forcement tu galeres j vois pas pkoi par contre vais regarder

#20 Re : -1 »  StreamStudio, application streaming youtube/dailymotion/torrents... » Aujourd'hui à 19:12

smo
Réponses : 1256

bon

relances le soft, fais la mise à jour

ressayes et dis moi (verifies le download aussi stp)

thx

#21 Re : -1 »  StreamStudio, application streaming youtube/dailymotion/torrents... » Aujourd'hui à 19:32

smo
Réponses : 1256

meme pb y t ouvre plusieurs fois l flux Oo

vu que je ne reproduis pas le soucis c est genant tongue

serait bien que j debug direct de ton pc si y a moyen hmm (teamviewer)

viens sur irc stp (en bas du site y a le lien)

#22 Re : -1 »  StreamStudio, application streaming youtube/dailymotion/torrents... » Aujourd'hui à 19:36

smo
Réponses : 1256

mon log a moi :

UPNP: Ok playinghttp://192.168.0.36:8888/?file=http://www.twitch.tv/twitch&quality=high upnpserver.js:358
TRANSITIONING PLAYING true 0 upnpserver.js:385
TRANSITIONING PLAYING true 1 upnpserver.js:385
play twitch stream ht5server.js:149
Starting twitch streaming http://www.twitch.tv/twitch with quality high ht5server.js:158
 ht5server.js:389
grep stderr: ffmpeg version 2.5.2-   http://johnvansickle.com/ffmpeg/    Copyright (c) 2000-2014 the FFmpeg developers
  built on Dec 28 2014 09:35:50 with gcc 4.8 (Debian 4.8.3-19)
  configuration: --enable-gpl --enable-version3 --disable-shared --disable-debug --enable-runtime-cpudetect --enable-libmp3lame --enable-libx264 --enable-libx265 --enable-libwebp --enable-libspeex --enable-libvorbis --enable-libvpx --enable-libfreetype --enable-fontconfig --enable-libxvid --enable-libopencore-amrnb --enable-libopencore-amrwb --enable-libtheora --enable-libvo-aacenc --enable-libvo-amrwbenc --enable-gray --enable-libopenjpeg --enable-libopus --disable-ffserver --enable-libass --enable-gnutls --cc=gcc-4.8
  libavutil      54. 15.100 / 54. 15.100
  libavcodec     56. 13.100 / 56. 13.100
  libavformat    56. 15.102 / 56. 15.102
  libavdevice    56.  3.100 / 56.  3.100
  libavfilter     5.  2.103 /  5.  2.103
  libswscale      3.  1.101 /  3.  1.101
  libswresample   1.  1.100 /  1.  1.100
  libpostproc    53.  3.100 / 53.  3.100
 ht5server.js:440
grep stderr: [cli][info] Found matching plugin twitch for URL http://www.twitch.tv/twitch
 ht5server.js:168
TRANSITIONING PLAYING true 2 upnpserver.js:385
TRANSITIONING PLAYING true 3 upnpserver.js:385
grep stderr: [cli][info] Available streams: audio, high, low, medium, mobile (worst), source (best)
[cli][info] Opening stream: high (hls)
 ht5server.js:168
TRANSITIONING PLAYING true 4 upnpserver.js:385
TRANSITIONING PLAYING true 5 upnpserver.js:385
TRANSITIONING PLAYING true 6 upnpserver.js:385
TRANSITIONING PLAYING true 7 upnpserver.js:385
TRANSITIONING PLAYING true 8 upnpserver.js:385
TRANSITIONING PLAYING true 9 upnpserver.js:385
TRANSITIONING PLAYING true 10 upnpserver.js:385
grep stderr: Input #0, mpegts, from 'pipe:0':
  Duration: N/A, start: 5829.537000, bitrate: 126 kb/s
  Program 1 
 ht5server.js:440
grep stderr:     Stream #0:0[0x100]: Audio: aac (LC) ([15][0][0][0] / 0x000F), 44100 Hz, stereo, fltp, 126 kb/s
    Stream #0:1[0x101]: Video: h264 (Constrained Baseline) ([27][0][0][0] / 0x001B), yuv420p, 1280x720, 29.97 fps, 29.97 tbr, 90k tbn, 2k tbc
    Stream #0:2[0x102]: Data: timed_id3 (ID3  / 0x20334449)
 ht5server.js:440
grep stderr: [libx264 @ 0x3a51d40] using cpu capabilities: MMX2 SSE2Fast SSSE3 SSE4.2 AVX
 ht5server.js:440
grep stderr: [libx264 @ 0x3a51d40] profile Constrained Baseline, level 3.1
 ht5server.js:440
grep stderr: [libx264 @ 0x3a51d40] 264 - core 144 r96 40bb568 - H.264/MPEG-4 AVC codec - Copyleft 2003-2014 - http://www.videolan.org/x264.html - options: cabac=0 ref=1 deblock=0:0:0 analyse=0:0 me=dia subme=0 psy=1 psy_rd=1.00:0.00 mixed_ref=0 me_range=16 chroma_me=1 trellis=0 8x8dct=0 cqm=0 deadzone=21,11 fast_pskip=1 chroma_qp_offset=0 threads=6 lookahead_threads=1 sliced_threads=0 nr=0 decimate=1 interlaced=0 bluray_compat=0 constrained_intra=0 bframes=0 weightp=0 keyint=250 keyint_min=25 scenecut=0 intra_refresh=0 rc=crf mbtree=0 crf=23.0 qcomp=0.60 qpmin=0 qpmax=69 qpstep=4 ip_ratio=1.40 aq=0
 ht5server.js:440
grep stderr: Output #0, matroska, to 'pipe:1':
  Metadata:
    encoder         : Lavf56.15.102
    Stream #0:0: Video: h264 (libx264) (H264 / 0x34363248), yuv420p, 1280x720, q=-1--1, 29.97 fps, 1k tbn, 29.97 tbc
    Metadata:
      encoder         : Lavc56.13.100 libx264
    Stream #0:1: Audio: vorbis (libvorbis) (oV[0][0] / 0x566F), 44100 Hz, stereo, fltp
    Metadata:
      encoder         : Lavc56.13.100 libvorbis
Stream mapping:
  Stream #0:1 -> #0:0 (h264 (native) -> h264 (libx264))
  Stream #0:0 -> #0:1 (aac (native) -> vorbis (libvorbis))
 ht5server.js:440
grep stderr: frame=    9 fps=0.0 q=19.0 size=      85kB time=00:00:00.50 bitrate=1398.2kbits/s    
 ht5server.js:440
TRANSITIONING PLAYING true 11 upnpserver.js:385
grep stderr: frame=   24 fps= 24 q=20.0 size=     227kB time=00:00:00.95 bitrate=1943.9kbits/s    
 ht5server.js:440
grep stderr: frame=   39 fps= 26 q=23.0 size=     397kB time=00:00:01.46 bitrate=2217.3kbits/s    
 ht5server.js:440
TRANSITIONING PLAYING true 12 upnpserver.js:385
grep stderr: frame=   54 fps= 27 q=22.0 size=     686kB time=00:00:01.99 bitrate=2822.8kbits/s    
 ht5server.js:440
grep stderr: frame=   69 fps= 27 q=23.0 size=     960kB time=00:00:02.54 bitrate=3089.9kbits/s    
 ht5server.js:440
TRANSITIONING PLAYING true 13 upnpserver.js:385
grep stderr: frame=   85 fps= 28 q=21.0 size=    1244kB time=00:00:02.98 bitrate=3409.8kbits/s    
 ht5server.js:440
grep stderr: frame=   99 fps= 28 q=22.0 size=    1458kB time=00:00:03.48 bitrate=3426.9kbits/s    
 ht5server.js:440
TRANSITIONING PLAYING true 14 upnpserver.js:385
grep stderr: frame=  115 fps= 28 q=22.0 size=    1760kB time=00:00:03.99 bitrate=3608.2kbits/s    
 ht5server.js:440
grep stderr: frame=  130 fps= 29 q=22.0 size=    2011kB time=00:00:04.49 bitrate=3667.3kbits/s    
 ht5server.js:440
TRANSITIONING PLAYING true 15 upnpserver.js:385
grep stderr: frame=  145 fps= 29 q=22.0 size=    2313kB time=00:00:05.02 bitrate=3771.1kbits/s    
 ht5server.js:440
grep stderr: frame=  160 fps= 29 q=21.0 size=    2579kB time=00:00:05.52 bitrate=3825.2kbits/s    
 ht5server.js:440
TRANSITIONING PLAYING true 16 upnpserver.js:385
grep stderr: frame=  175 fps= 29 q=23.0 size=    2826kB time=00:00:06.01 bitrate=3849.5kbits/s    
 ht5server.js:440
grep stderr: frame=  190 fps= 29 q=22.0 size=    3099kB time=00:00:06.53 bitrate=3885.6kbits/s    
 ht5server.js:440
TRANSITIONING PLAYING true 17 upnpserver.js:385
grep stderr: frame=  206 fps= 29 q=23.0 size=    3372kB time=00:00:07.04 bitrate=3920.7kbits/s    
 ht5server.js:440
grep stderr: frame=  221 fps= 29 q=22.0 size=    3679kB time=00:00:07.55 

tu vois y a qu un flux les fps se suivent

#24 Re : -1 »  StreamStudio, application streaming youtube/dailymotion/torrents... » Aujourd'hui à 19:42

smo
Réponses : 1256

t as une vieille version hizo, download des maj cassé sur celle ci

reprends le zip depuis le site streamstudio.me stp smile ça corrigera tous tes soucis

++