Contenu | Rechercher | Menus

Annonce

Si vous rencontrez des soucis à rester connecté sur le forum (ou si vous avez perdu votre mot de passe) déconnectez-vous et reconnectez-vous depuis cette page, en cochant la case "Me connecter automatiquement lors de mes prochaines visites".
Test de l'ISO d'Ubuntu francophone : nous avons besoin de testeurs pour la version francophone d'Ubuntu 14.04. Liens et informations ici.
nombre réponses : 25

#0 Re : -1 »  Dual boot Windows 7 Ubuntu sur 2 disques dur » Aujourd'hui à 00:02

Arbiel
Réponses : 3

Bonsoir

En cherchant les interventions de YannUbuntu et de malbo, tu devrais trouver un bon nombre d'informations susceptibles de te sortir de tes difficultés.

Arbiel

#1 Re : -1 »  Dual boot Windows 7 Ubuntu sur 2 disques dur » Aujourd'hui à 10:51

Arbiel
Réponses : 3

Bonjour

@Bongron

Mon intention n'était nullement de critiquer Scarifieur, mais simplement de lui indiquer des pistes de recherche. Je constate que tu lui simplifies les choses, puisque tu lui indiques directement le résultat d'une telle recherche.

Il t'en sera indiscutablement reconnaissant.

Pour ce qui concerne ta remarque sur la documentation,

1) à mon humble avis, il ne s'agit pas tant de la dater que d'indiquer en préambule les connaissances requises pour pouvoir en tirer le meilleur profit. En l'occurrence, le titre de la page référencée par Scarifieur "Comment faire un multiboot sans écraser le MBR et avec 2 disques durs ?" indique sans ambiguïté qu'il ne s'agit nullement d'(U)EFI. Et cette page, bien qu'elle date de 2000, est toujours d'actualité.

2)"la critique est aisée, mais l'art (ici la gestion de la documentation) est difficile".

Arbiel

#2 Re : -1 »  probleme grub sur SSD » Hier à 23:58

Arbiel
Réponses : 1

Bonsoir

boot-repair te permet de produire un rapport qui pourrait vraisemblablement nous aider à t'aider, et cela sans essayer en aucune façon de réparer grub. Et, si les commentaires sur boot-repair que tu as lus t'inquiètent tu peux produire ce même rapport avec bootinfoscript.

Arbiel

#3 -1 »  [Abandon] Enregistrement d'une émission TV impossible à relire » Le 15/09/2014, à 19:43

Arbiel
Réponses : 15

Bonsoir à tous

J'ai enregistré une émission de télévision depuis mon téléviseur sur un disque externe par un des ports USB.

La documentation indique que le disque utilisé à cette fin ne peut pas être lu sur un PC. En fait, le téléviseur formate le disque en xfs, ce qui le laisse accessible sous GNU/Linux, contrairement à ce qui est écrit dans la documentation (à destination, je suppose, des utilisateurs λ).

L'enregistrement est un fichier nommé xyz.tsl (12 Go pour 3 heures). Malheureusement je ne parviens pas à le lire (VLC, handbrake, Avidemux, Totem, Pitivi).

Quelqu'un saurait-il faire ?

Merci d'avance

#4 Re : -1 »  [Abandon] Enregistrement d'une émission TV impossible à relire » Le 16/09/2014, à 23:55

Arbiel
Réponses : 15
"mediainfo '/media/remi/3718e758-366b-4f1c-914c-9a58ed93ae8e/tf1.tsl' a écrit :

General
Complete name                            : /media/remi/3718e758-366b-4f1c-914c-9a58ed93ae8e/tf1.tsl
Format                                   : MPEG-TS
Format profile                           : No PAT/PMT
File size                                : 11.1 GiB

Mon téléviseur est un Philips. Je ne pense pas que le fichier soit chiffré car le processeur n'a pas de réelle raison d'être suffisamment puissant pour une telle opération.

J'ai de nouveau lancé handbrake et j'en publierai le log quand il aura fini.

Edit

Voila le contenu du log

[23:47:28] gtkgui: HandBrake rev5474 (2014032499) - Linux x86_64 - http://handbrake.fr
[23:47:28] hb_init: starting libhb thread
[23:47:28] hb_init: starting libhb thread
[23:47:29] hb_scan: path=/media/remi/3718e758-366b-4f1c-914c-9a58ed93ae8e/tf1.tsl, title_index=0
libbluray/bdnav/index_parse.c:162: indx_parse(): error opening /media/remi/3718e758-366b-4f1c-914c-9a58ed93ae8e/tf1.tsl/BDMV/index.bdmv
libbluray/bdnav/index_parse.c:162: indx_parse(): error opening /media/remi/3718e758-366b-4f1c-914c-9a58ed93ae8e/tf1.tsl/BDMV/BACKUP/index.bdmv
libbluray/bluray.c:2182: nav_get_title_list(/media/remi/3718e758-366b-4f1c-914c-9a58ed93ae8e/tf1.tsl) failed
[23:47:29] bd: not a bd - trying as a stream/file instead
libdvdnav: Using dvdnav version 4.2.1
libdvdnav:DVDOpenFileUDF:UDFFindFile /VIDEO_TS/VIDEO_TS.IFO failed
libdvdnav:DVDOpenFileUDF:UDFFindFile /VIDEO_TS/VIDEO_TS.BUP failed
libdvdread: Can't open file VIDEO_TS.IFO.
libdvdnav: vm: failed to read VIDEO_TS.IFO
[23:47:29] dvd: not a dvd - trying as a stream/file instead
[23:47:29] file is MPEG Transport Stream with 188 byte packets offset 4096 bytes
[23:50:39] hb_ts_stream_find_pids - end of file
[aac @ 0x7fecd0011b00] get_buffer() failed
[aac @ 0x7fecd0011b00] get_buffer() failed
[NULL @ 0x7fecd0016180] non-existing SPS 0 referenced in buffering period
[NULL @ 0x7fecd0016180] non-existing PPS referenced
[h264 @ 0x7fecd0016180] non-existing SPS 0 referenced in buffering period
[h264 @ 0x7fecd0016180] non-existing PPS 0 referenced
[h264 @ 0x7fecd0016180] decode_slice_header error
[h264 @ 0x7fecd0016180] no frame!
Input #0, mpegts, from '/media/remi/3718e758-366b-4f1c-914c-9a58ed93ae8e/tf1.tsl':
  Duration: N/A, start: 68796.797244, bitrate: N/A
    Stream #0.0[0xe8]: Audio: aac, 0 channels, fltp, 258 kb/s
    Stream #0.1[0xe7]: Data: [0][0][0][0] / 0x0000
    Stream #0.2[0xdc]: Video: h264, 90k tbn
    Stream #0.3[0xe6]: Data: [0][0][0][0] / 0x0000
    Stream #0.4[0xf0]: Data: [0][0][0][0] / 0x0000
[23:54:49] ffmpeg_title_scan: Unsupported color space
[23:54:49] scan: decoding previews for title 1
[NULL @ 0x7fecd0016180] non-existing SPS 0 referenced in buffering period
[NULL @ 0x7fecd0016180] non-existing PPS referenced
[NULL @ 0x7fecd0016180] non-existing SPS 0 referenced in buffering period
[NULL @ 0x7fecd0016180] non-existing PPS referenced
[NULL @ 0x7fecd0016180] non-existing SPS 0 referenced in buffering period
[NULL @ 0x7fecd0016180] non-existing PPS referenced
[NULL @ 0x7fecd0016180] non-existing SPS 0 referenced in buffering period
[NULL @ 0x7fecd0016180] non-existing PPS referenced
[NULL @ 0x7fecd0016180] non-existing SPS 0 referenced in buffering period
[NULL @ 0x7fecd0016180] non-existing PPS referenced
[NULL @ 0x7fecd0016180] non-existing SPS 0 referenced in buffering period
[NULL @ 0x7fecd0016180] non-existing PPS referenced
[aac @ 0x7fecd0049e60] get_buffer() failed
[NULL @ 0x7fecd0016180] non-existing SPS 0 referenced in buffering period
[NULL @ 0x7fecd0016180] non-existing PPS referenced
[NULL @ 0x7fecd0016180] non-existing SPS 0 referenced in buffering period
[NULL @ 0x7fecd0016180] non-existing PPS referenced
[NULL @ 0x7fecd0016180] non-existing SPS 0 referenced in buffering period
[NULL @ 0x7fecd0016180] non-existing PPS referenced
[NULL @ 0x7fecd0016180] non-existing SPS 0 referenced in buffering period
[NULL @ 0x7fecd0016180] non-existing PPS referenced
[NULL @ 0x7fecd0016180] non-existing SPS 0 referenced in buffering period
[NULL @ 0x7fecd0016180] non-existing PPS referenced
[NULL @ 0x7fecd0016180] non-existing SPS 0 referenced in buffering period
[NULL @ 0x7fecd0016180] non-existing PPS referenced
[NULL @ 0x7fecd0016180] non-existing SPS 0 referenced in buffering period
[NULL @ 0x7fecd0016180] non-existing PPS referenced
[NULL @ 0x7fecd0016180] non-existing SPS 0 referenced in buffering period
[NULL @ 0x7fecd0016180] non-existing PPS referenced
[NULL @ 0x7fecd0016180] non-existing SPS 0 referenced in buffering period
[NULL @ 0x7fecd0016180] non-existing PPS referenced
[NULL @ 0x7fecd0016180] non-existing SPS 0 referenced in buffering period
[NULL @ 0x7fecd0016180] non-existing PPS referenced
[NULL @ 0x7fecd0016180] non-existing SPS 0 referenced in buffering period
[NULL @ 0x7fecd0016180] non-existing PPS referenced
[NULL @ 0x7fecd0016180] non-existing SPS 0 referenced in buffering period
[NULL @ 0x7fecd0016180] non-existing PPS referenced
[NULL @ 0x7fecd0016180] non-existing SPS 0 referenced in buffering period
[NULL @ 0x7fecd0016180] non-existing PPS referenced
[NULL @ 0x7fecd0016180] non-existing SPS 0 referenced in buffering period
[NULL @ 0x7fecd0016180] non-existing PPS referenced
[NULL @ 0x7fecd0016180] non-existing SPS 0 referenced in buffering period
[NULL @ 0x7fecd0016180] non-existing PPS referenced
[NULL @ 0x7fecd0016180] non-existing SPS 0 referenced in buffering period
[NULL @ 0x7fecd0016180] non-existing PPS referenced
[NULL @ 0x7fecd0016180] non-existing SPS 0 referenced in buffering period
[NULL @ 0x7fecd0016180] non-existing PPS referenced
[NULL @ 0x7fecd0016180] non-existing SPS 0 referenced in buffering period
[NULL @ 0x7fecd0016180] non-existing PPS referenced
[NULL @ 0x7fecd0016180] non-existing SPS 0 referenced in buffering period
[NULL @ 0x7fecd0016180] non-existing PPS referenced
[NULL @ 0x7fecd0016180] non-existing SPS 0 referenced in buffering period
[NULL @ 0x7fecd0016180] non-existing PPS referenced
[NULL @ 0x7fecd0016180] non-existing SPS 0 referenced in buffering period
[NULL @ 0x7fecd0016180] non-existing PPS referenced
[aac @ 0x7fecd0011500] get_buffer() failed
[aac @ 0x7fecd0011500] channel element 3.11 is not allocated
[aac @ 0x7fecd092d3e0] get_buffer() failed
[aac @ 0x7fecd092d3e0] channel element 3.11 is not allocated
[aac @ 0x7fecd092d3e0] channel element 3.12 is not allocated
[aac @ 0x7fecd092e0e0] get_buffer() failed
[aac @ 0x7fecd092e0e0] channel element 3.11 is not allocated
[aac @ 0x7fecd092e0e0] channel element 3.12 is not allocated
[aac @ 0x7fecd092e0e0] channel element 3.8 is not allocated
[aac @ 0x7fecd05b8f00] get_buffer() failed
[aac @ 0x7fecd05b8f00] channel element 3.11 is not allocated
[aac @ 0x7fecd05b8f00] channel element 3.12 is not allocated
[aac @ 0x7fecd05b8f00] channel element 3.8 is not allocated
[aac @ 0x7fecd05b8f00] Reserved bit set.
[aac @ 0x7fecd092e0e0] get_buffer() failed
[aac @ 0x7fecd092e0e0] channel element 3.11 is not allocated
[aac @ 0x7fecd092e0e0] channel element 3.12 is not allocated
[aac @ 0x7fecd092e0e0] channel element 3.8 is not allocated
[aac @ 0x7fecd092e0e0] Reserved bit set.
[aac @ 0x7fecd092e0e0] Prediction is not allowed in AAC-LC.
[aac @ 0x7fecd003f940] get_buffer() failed
[aac @ 0x7fecd003f940] channel element 3.11 is not allocated
[aac @ 0x7fecd003f940] channel element 3.12 is not allocated
[aac @ 0x7fecd003f940] channel element 3.8 is not allocated
[aac @ 0x7fecd003f940] Reserved bit set.
[aac @ 0x7fecd003f940] Prediction is not allowed in AAC-LC.
[aac @ 0x7fecd003f940] Prediction is not allowed in AAC-LC.
[aac @ 0x7fecd003f940] get_buffer() failed
[aac @ 0x7fecd003f940] channel element 3.11 is not allocated
[aac @ 0x7fecd003f940] channel element 3.12 is not allocated
[aac @ 0x7fecd003f940] channel element 3.8 is not allocated
[aac @ 0x7fecd003f940] Reserved bit set.
[aac @ 0x7fecd003f940] Prediction is not allowed in AAC-LC.
[aac @ 0x7fecd003f940] Prediction is not allowed in AAC-LC.
[aac @ 0x7fecd003f940] invalid band type
[aac @ 0x7fecd003f940] get_buffer() failed
[aac @ 0x7fecd003f940] channel element 3.11 is not allocated
[aac @ 0x7fecd003f940] channel element 3.12 is not allocated
[aac @ 0x7fecd003f940] channel element 3.8 is not allocated
[aac @ 0x7fecd003f940] Reserved bit set.
[aac @ 0x7fecd003f940] Prediction is not allowed in AAC-LC.
[aac @ 0x7fecd003f940] Prediction is not allowed in AAC-LC.
[aac @ 0x7fecd003f940] invalid band type
[aac @ 0x7fecd003f940] Reserved bit set.
[aac @ 0x7fecd003f940] get_buffer() failed
[aac @ 0x7fecd003f940] channel element 3.11 is not allocated
[aac @ 0x7fecd003f940] channel element 3.12 is not allocated
[aac @ 0x7fecd003f940] channel element 3.8 is not allocated
[aac @ 0x7fecd003f940] Reserved bit set.
[aac @ 0x7fecd003f940] Prediction is not allowed in AAC-LC.
[aac @ 0x7fecd003f940] Prediction is not allowed in AAC-LC.
[aac @ 0x7fecd003f940] invalid band type
[aac @ 0x7fecd003f940] Reserved bit set.
[aac @ 0x7fecd003f940] Reserved bit set.
[aac @ 0x7fecd092e920] get_buffer() failed
[aac @ 0x7fecd092e920] channel element 3.11 is not allocated
[aac @ 0x7fecd092e920] channel element 3.12 is not allocated
[aac @ 0x7fecd092e920] channel element 3.8 is not allocated
[aac @ 0x7fecd092e920] Reserved bit set.
[aac @ 0x7fecd092e920] Prediction is not allowed in AAC-LC.
[aac @ 0x7fecd092e920] Prediction is not allowed in AAC-LC.
[aac @ 0x7fecd092e920] invalid band type
[aac @ 0x7fecd092e920] Reserved bit set.
[aac @ 0x7fecd092e920] Reserved bit set.
[aac @ 0x7fecd092e920] channel element 2.7 is not allocated
[aac @ 0x7fecd0b5a100] channel element 3.11 is not allocated
[aac @ 0x7fecd0b5a100] channel element 3.12 is not allocated
[aac @ 0x7fecd0b5a100] channel element 3.8 is not allocated
[aac @ 0x7fecd0b5a100] Reserved bit set.
[aac @ 0x7fecd0b5a100] Prediction is not allowed in AAC-LC.
[aac @ 0x7fecd0b5a100] Prediction is not allowed in AAC-LC.
[aac @ 0x7fecd0b5a100] invalid band type
[aac @ 0x7fecd0b5a100] Reserved bit set.
[aac @ 0x7fecd0b5a100] Reserved bit set.
[aac @ 0x7fecd0b5a100] channel element 2.7 is not allocated
[aac @ 0x7fecd0b5a100] Number of bands (17) exceeds limit (14).
[aac @ 0x7fecd003e8a0] get_buffer() failed
[aac @ 0x7fecd003e8a0] get_buffer() failed
[aac @ 0x7fecd003e8a0] get_buffer() failed
[aac @ 0x7fecd003e8a0] get_buffer() failed
[aac @ 0x7fecd003e8a0] get_buffer() failed
[aac @ 0x7fecd003e8a0] get_buffer() failed
[aac @ 0x7fecd003e8a0] get_buffer() failed
[aac @ 0x7fecd003e8a0] get_buffer() failed
[aac @ 0x7fecd003e8a0] channel element 2.7 is not allocated
[aac @ 0x7fecd003e8a0] Number of bands (17) exceeds limit (14).
[aac @ 0x7fecd003e8a0] channel element 1.4 is not allocated
[aac @ 0x7fecd003e8a0] get_buffer() failed
[aac @ 0x7fecd003e8a0] get_buffer() failed
[aac @ 0x7fecd003e8a0] get_buffer() failed
[aac @ 0x7fecd003e8a0] get_buffer() failed
[aac @ 0x7fecd003e8a0] get_buffer() failed
[aac @ 0x7fecd003e8a0] get_buffer() failed
[aac @ 0x7fecd003e8a0] get_buffer() failed
[aac @ 0x7fecd003e8a0] get_buffer() failed
[aac @ 0x7fecd003e8a0] channel element 2.7 is not allocated
[aac @ 0x7fecd003e8a0] Number of bands (17) exceeds limit (14).
[aac @ 0x7fecd003e8a0] channel element 1.4 is not allocated
[aac @ 0x7fecd003e8a0] Number of bands (49) exceeds limit (42).
[aac @ 0x7fecd092ea00] get_buffer() failed
[aac @ 0x7fecd092ea00] get_buffer() failed
[aac @ 0x7fecd092ea00] get_buffer() failed
[aac @ 0x7fecd092ea00] get_buffer() failed
[aac @ 0x7fecd092ea00] get_buffer() failed
[aac @ 0x7fecd092ea00] get_buffer() failed
[aac @ 0x7fecd092ea00] get_buffer() failed
[aac @ 0x7fecd092ea00] get_buffer() failed
[aac @ 0x7fecd092ea00] channel element 2.7 is not allocated
[aac @ 0x7fecd092ea00] Number of bands (17) exceeds limit (14).
[aac @ 0x7fecd092ea00] channel element 1.4 is not allocated
[aac @ 0x7fecd092ea00] Number of bands (49) exceeds limit (42).
[aac @ 0x7fecd092ea00] Prediction is not allowed in AAC-LC.
[aac @ 0x7fecd092ea00] get_buffer() failed
[aac @ 0x7fecd092ea00] get_buffer() failed
[aac @ 0x7fecd092ea00] get_buffer() failed
[aac @ 0x7fecd092ea00] get_buffer() failed
[aac @ 0x7fecd092ea00] get_buffer() failed
[aac @ 0x7fecd092ea00] get_buffer() failed
[aac @ 0x7fecd092ea00] get_buffer() failed
[aac @ 0x7fecd092ea00] get_buffer() failed
[aac @ 0x7fecd092ea00] channel element 2.7 is not allocated
[aac @ 0x7fecd092ea00] Number of bands (17) exceeds limit (14).
[aac @ 0x7fecd092ea00] channel element 1.4 is not allocated
[aac @ 0x7fecd092ea00] Number of bands (49) exceeds limit (42).
[aac @ 0x7fecd092ea00] Prediction is not allowed in AAC-LC.
[aac @ 0x7fecd092ea00] Reserved bit set.
[aac @ 0x7fecd004ae80] get_buffer() failed
[aac @ 0x7fecd004ae80] get_buffer() failed
[aac @ 0x7fecd004ae80] get_buffer() failed
[aac @ 0x7fecd004ae80] get_buffer() failed
[aac @ 0x7fecd004ae80] get_buffer() failed
[aac @ 0x7fecd004ae80] get_buffer() failed
[aac @ 0x7fecd004ae80] get_buffer() failed
[aac @ 0x7fecd004ae80] channel element 2.7 is not allocated
[aac @ 0x7fecd004ae80] Number of bands (17) exceeds limit (14).
[aac @ 0x7fecd004ae80] channel element 1.4 is not allocated
[aac @ 0x7fecd004ae80] Number of bands (49) exceeds limit (42).
[aac @ 0x7fecd004ae80] Prediction is not allowed in AAC-LC.
[aac @ 0x7fecd004ae80] Reserved bit set.
[aac @ 0x7fecd004ae80] Error decoding AAC frame header.
[aac @ 0x7fecd004ae80] get_buffer() failed
[aac @ 0x7fecd004ae80] get_buffer() failed
[aac @ 0x7fecd004ae80] get_buffer() failed
[aac @ 0x7fecd004ae80] get_buffer() failed
[aac @ 0x7fecd004ae80] get_buffer() failed
[aac @ 0x7fecd004ae80] get_buffer() failed
[aac @ 0x7fecd004ae80] channel element 2.7 is not allocated
[aac @ 0x7fecd004ae80] Number of bands (17) exceeds limit (14).
[aac @ 0x7fecd004ae80] channel element 1.4 is not allocated
[aac @ 0x7fecd004ae80] Number of bands (49) exceeds limit (42).
[aac @ 0x7fecd004ae80] Prediction is not allowed in AAC-LC.
[aac @ 0x7fecd004ae80] Reserved bit set.
[aac @ 0x7fecd004ae80] Error decoding AAC frame header.
[aac @ 0x7fecd004ae80] channel element 1.5 is not allocated
[aac @ 0x7fecd003e8a0] get_buffer() failed
[aac @ 0x7fecd003e8a0] get_buffer() failed
[aac @ 0x7fecd003e8a0] get_buffer() failed
[aac @ 0x7fecd003e8a0] get_buffer() failed
[aac @ 0x7fecd003e8a0] get_buffer() failed
[aac @ 0x7fecd003e8a0] channel element 2.7 is not allocated
[aac @ 0x7fecd003e8a0] Number of bands (17) exceeds limit (14).
[aac @ 0x7fecd003e8a0] channel element 1.4 is not allocated
[aac @ 0x7fecd003e8a0] Number of bands (49) exceeds limit (42).
[aac @ 0x7fecd003e8a0] Prediction is not allowed in AAC-LC.
[aac @ 0x7fecd003e8a0] Reserved bit set.
[aac @ 0x7fecd003e8a0] Error decoding AAC frame header.
[aac @ 0x7fecd003e8a0] channel element 1.5 is not allocated
[aac @ 0x7fecd003e8a0] Error decoding AAC frame header.
[aac @ 0x7fecd003e8a0] get_buffer() failed
[aac @ 0x7fecd003e8a0] get_buffer() failed
[aac @ 0x7fecd003e8a0] get_buffer() failed
[aac @ 0x7fecd003e8a0] get_buffer() failed
[aac @ 0x7fecd003e8a0] channel element 2.7 is not allocated
[aac @ 0x7fecd003e8a0] Number of bands (17) exceeds limit (14).
[aac @ 0x7fecd003e8a0] channel element 1.4 is not allocated
[aac @ 0x7fecd003e8a0] Number of bands (49) exceeds limit (42).
[aac @ 0x7fecd003e8a0] Prediction is not allowed in AAC-LC.
[aac @ 0x7fecd003e8a0] Reserved bit set.
[aac @ 0x7fecd003e8a0] Error decoding AAC frame header.
[aac @ 0x7fecd003e8a0] channel element 1.5 is not allocated
[aac @ 0x7fecd003e8a0] Error decoding AAC frame header.
[aac @ 0x7fecd003e8a0] Reserved bit set.
[aac @ 0x7fecd003e8a0] get_buffer() failed
[aac @ 0x7fecd003e8a0] get_buffer() failed
[aac @ 0x7fecd003e8a0] get_buffer() failed
[aac @ 0x7fecd003e8a0] channel element 2.7 is not allocated
[aac @ 0x7fecd003e8a0] Number of bands (17) exceeds limit (14).
[aac @ 0x7fecd003e8a0] channel element 1.4 is not allocated
[aac @ 0x7fecd003e8a0] Number of bands (49) exceeds limit (42).
[aac @ 0x7fecd003e8a0] Prediction is not allowed in AAC-LC.
[aac @ 0x7fecd003e8a0] Reserved bit set.
[aac @ 0x7fecd003e8a0] Error decoding AAC frame header.
[aac @ 0x7fecd003e8a0] channel element 1.5 is not allocated
[aac @ 0x7fecd003e8a0] Error decoding AAC frame header.
[aac @ 0x7fecd003e8a0] Reserved bit set.
[aac @ 0x7fecd003e8a0] Reserved bit set.
[aac @ 0x7fecd003e8a0] get_buffer() failed
[aac @ 0x7fecd003e8a0] get_buffer() failed
[aac @ 0x7fecd003e8a0] channel element 2.7 is not allocated
[aac @ 0x7fecd003e8a0] Number of bands (17) exceeds limit (14).
[aac @ 0x7fecd003e8a0] channel element 1.4 is not allocated
[aac @ 0x7fecd003e8a0] Number of bands (49) exceeds limit (42).
[aac @ 0x7fecd003e8a0] Prediction is not allowed in AAC-LC.
[aac @ 0x7fecd003e8a0] Reserved bit set.
[aac @ 0x7fecd003e8a0] Error decoding AAC frame header.
[aac @ 0x7fecd003e8a0] channel element 1.5 is not allocated
[aac @ 0x7fecd003e8a0] Error decoding AAC frame header.
[aac @ 0x7fecd003e8a0] Reserved bit set.
[aac @ 0x7fecd003e8a0] Reserved bit set.
[aac @ 0x7fecd003e8a0] channel element 1.2 is not allocated
[aac @ 0x7fecd0015b40] get_buffer() failed
[aac @ 0x7fecd0015b40] channel element 2.7 is not allocated
[aac @ 0x7fecd0015b40] Number of bands (17) exceeds limit (14).
[aac @ 0x7fecd0015b40] channel element 1.4 is not allocated
[aac @ 0x7fecd0015b40] Number of bands (49) exceeds limit (42).
[aac @ 0x7fecd0015b40] Prediction is not allowed in AAC-LC.
[aac @ 0x7fecd0015b40] Reserved bit set.
[aac @ 0x7fecd0015b40] Error decoding AAC frame header.
[aac @ 0x7fecd0015b40] channel element 1.5 is not allocated
[aac @ 0x7fecd0015b40] Error decoding AAC frame header.
[aac @ 0x7fecd0015b40] Reserved bit set.
[aac @ 0x7fecd0015b40] Reserved bit set.
[aac @ 0x7fecd0015b40] channel element 1.2 is not allocated
[aac @ 0x7fecd0015b40] Reserved bit set.
[aac @ 0x7fecd0015b40] channel element 2.7 is not allocated
[aac @ 0x7fecd0015b40] Number of bands (17) exceeds limit (14).
[aac @ 0x7fecd0015b40] channel element 1.4 is not allocated
[aac @ 0x7fecd0015b40] Number of bands (49) exceeds limit (42).
[aac @ 0x7fecd0015b40] Prediction is not allowed in AAC-LC.
[aac @ 0x7fecd0015b40] Reserved bit set.
[aac @ 0x7fecd0015b40] Error decoding AAC frame header.
[aac @ 0x7fecd0015b40] channel element 1.5 is not allocated
[aac @ 0x7fecd0015b40] Error decoding AAC frame header.
[aac @ 0x7fecd0015b40] Reserved bit set.
[aac @ 0x7fecd0015b40] Reserved bit set.
[aac @ 0x7fecd0015b40] channel element 1.2 is not allocated
[aac @ 0x7fecd0015b40] Reserved bit set.
[aac @ 0x7fecd0015b40] Reserved bit set.
[aac @ 0x7fecd004ae80] get_buffer() failed
[aac @ 0x7fecd004ae80] get_buffer() failed
[aac @ 0x7fecd004ae80] get_buffer() failed
[aac @ 0x7fecd004ae80] get_buffer() failed
[aac @ 0x7fecd004ae80] get_buffer() failed
[aac @ 0x7fecd004ae80] Error decoding AAC frame header.
[aac @ 0x7fecd004ae80] get_buffer() failed
[aac @ 0x7fecd004ae80] Error decoding AAC frame header.
[aac @ 0x7fecd004ae80] get_buffer() failed
[aac @ 0x7fecd004ae80] get_buffer() failed
[aac @ 0x7fecd004ae80] get_buffer() failed
[aac @ 0x7fecd004ae80] get_buffer() failed
[aac @ 0x7fecd004ae80] get_buffer() failed
[aac @ 0x7fecd004ae80] get_buffer() failed
[00:01:02] Warning: Could not read data for preview 1, skipped
[00:01:02] avformat_seek_file failed
[00:01:02] Warning: Could not read data for preview 2, skipped
[00:01:02] Warning: Could not read data for preview 3, skipped
[00:01:02] Warning: Could not read data for preview 4, skipped
[00:01:02] Warning: Could not read data for preview 5, skipped
[00:01:02] Warning: Could not read data for preview 6, skipped
[00:01:02] Warning: Could not read data for preview 7, skipped
[00:01:02] Warning: Could not read data for preview 8, skipped
[00:01:02] Warning: Could not read data for preview 9, skipped
[00:01:02] Warning: Could not read data for preview 10, skipped
[00:01:02] libhb: scan thread found 0 valid title(s)

On y voit entre autres

Input #0, mpegts, from '/media/remi/3718e758-366b-4f1c-914c-9a58ed93ae8e/tf1.tsl':
  Duration: N/A, start: 68796.797244, bitrate: N/A
    Stream #0.0[0xe8]: Audio: aac, 0 channels, fltp, 258 kb/s
    Stream #0.1[0xe7]: Data: [0][0][0][0] / 0x0000
    Stream #0.2[0xdc]: Video: h264, 90k tbn
    Stream #0.3[0xe6]: Data: [0][0][0][0] / 0x0000
    Stream #0.4[0xf0]: Data: [0][0][0][0] / 0x0000
[23:54:49] ffmpeg_title_scan: Unsupported color space

#5 Re : -1 »  [Abandon] Enregistrement d'une émission TV impossible à relire » Le 17/09/2014, à 09:31

Arbiel
Réponses : 15
mplayer '/media/remi/3718e758-366b-4f1c-914c-9a58ed93ae8e/tf1.tsl' a écrit :

MPlayer 1.1-4.8 (C) 2000-2012 MPlayer Team
mplayer: could not connect to socket
mplayer: No such file or directory
Failed to open LIRC support. You will not be able to use your remote control.

Playing /media/remi/3718e758-366b-4f1c-914c-9a58ed93ae8e/tf1.tsl.
libavformat version 54.20.4 (external)
Mismatching header version 54.20.3
TS file format detected.
NO VIDEO! AUDIO A52(pid=232) NO SUBS (yet)!  PROGRAM N. 0
Load subtitles in /media/remi/3718e758-366b-4f1c-914c-9a58ed93ae8e/
TS_PARSE: COULDN'T SYNC
==========================================================================
Opening audio decoder: [ffmpeg] FFmpeg/libavcodec audio decoders
libavcodec version 54.35.0 (external)
[ac3 @ 0x7f860579fb00]frame CRC mismatch
Unknown/missing audio format -> no sound
ADecoder init failed sad
Requested audio codec family [a52] (afm=liba52) not available.
Enable it at compilation.
Opening audio decoder: [hwac3] AC3/DTS pass-through S/PDIF
AC3/DTS sync failed
ADecoder init failed sad
ADecoder init failed sad
Opening audio decoder: [spdif] libavformat/spdifenc audio pass-through decoder.
AUDIO: 48000 Hz, 2 ch, iec61937le, 768.0 kbit/50.00% (ratio: 96000->192000)
Selected audio codec: [spdifac3] afm: spdif (libavformat/spdifenc AC-3 pass-through decoder)
==========================================================================
AO: [pulse] 48000Hz 2ch s16le (2 bytes per sample)
Video: no video
Starting playback...
A:68818.4 (19:06:58.3) of 122164.5 (33:56:04.4) ??,?%


Exiting... (End of file)

Quant à mkvmerge, que j'ai lancé par l'interface graphique, il n'ouvre pas le fichier et me donne les informations suivantes

ASSERT INFO:
/usr/include/wx-3.0/wx/strvararg.h(451): assert "(argtype & (wxFormatStringSpecifier<T>::value)) == argtype" failed in wxArgNormalizer(): format specifier doesn't match argument type

BACKTRACE:
[1] char* std::string::_S_construct<char*>(char*, char*, std::allocator<char> const&, std::forward_iterator_tag)
[2] char* std::string::_S_construct<char*>(char*, char*, std::allocator<char> const&, std::forward_iterator_tag)
[3] char* std::string::_S_construct<char*>(char*, char*, std::allocator<char> const&, std::forward_iterator_tag)
[4] wxAppConsoleBase::CallEventHandler(wxEvtHandler*, wxEventFunctor&, wxEvent&) const
[5] wxEvtHandler::ProcessEventIfMatchesId(wxEventTableEntryBase const&, wxEvtHandler*, wxEvent&)
[6] wxEventHashTable::HandleEvent(wxEvent&, wxEvtHandler*)
[7] wxEvtHandler::TryHereOnly(wxEvent&)
[8] wxEvtHandler::ProcessEventLocally(wxEvent&)
[9] wxEvtHandler::ProcessEvent(wxEvent&)
[10] wxWindowBase::TryAfter(wxEvent&)
[11] wxEvtHandler::SafelyProcessEvent(wxEvent&)
[12] g_signal_emit_valist
[13] g_signal_emit
[14] g_closure_invoke
[15] g_signal_emit_valist
[16] g_signal_emit
[17] g_closure_invoke
[18] g_signal_emit_valist
[19] g_signal_emit
[20] gtk_propagate_event
[21] gtk_main_do_event
[22] g_main_context_dispatch
[23] g_main_loop_run
[24] gtk_main
[25] wxGUIEventLoop::DoRun()
[26] wxEventLoopBase::Run()
[27] wxAppConsoleBase::MainLoop()
[28] wxEntry(int&, wchar_t**)
[29] __libc_start_main

Arbiel

#6 Re : -1 »  [Abandon] Enregistrement d'une émission TV impossible à relire » Le 17/09/2014, à 10:00

Arbiel
Réponses : 15

Pour conclure

Je vous remercie tous de vous être penchés sur mon problème.

Visiblement, Philips veut vraiment empêcher toute exploitation des enregistrements faits à partir de ses téléviseurs sur d'autres équipements que les siens. Je crois que c'est perdre notre temps que de continuer.

J'abandonne.

Cependant. si quelqu'un veut poursuivre cette investigation, je peux faire un nouvel enregistrement de quelques minutes et lui transmettre le fichier.

Merci encore à vous tous

Arbiel

#7 Re : -1 »  [Abandon] Enregistrement d'une émission TV impossible à relire » Le 17/09/2014, à 17:37

Arbiel
Réponses : 15

Le fichier, nommé 141.tsl, de 20 Mo environ est ici.

#8 Re : -1 »  [Abandon] Enregistrement d'une émission TV impossible à relire » Hier à 23:51

Arbiel
Réponses : 15

Bonsoir

Non téléviseur est un

Philips 42PFL7108H/12

Je possède par ailleurs un enregistreur TViX de DVICO qui se présente également comme un disque externe USB et dont les enregistrements, des fichiers *.tp, sont lus sans aucune difficulté par handbrake, vlc, …

Arbiel

#9 -1 »  [Résolu] Gestion des droits d'accès fichiers+dossiers d'un serveur ssh » Le 07/08/2014, à 23:26

Arbiel
Réponses : 12

Bonsoir à tous

J'ai créé une machine VirtualBox à laquelle je me connecte depuis ma machine hôte avec la commande suivante

sshfs -o uid=1000 -o gid=1000 r@s-14-04-64-sda:/ '/home/remi/Réseau'

La connexion se passe correctement, mais toute tentative de création de dossier sur la machine invitée (un serveur sans interface graphique) à partir de ma machine hôte, que j'utilise sudo ou pas, m'est refusée. Pourtant la lecture des propriétés des objets de la machine invitée à partir de la machine hôte indique que "Moi" est propriétaire.

Comment dois-je faire pour acquérir les droits nécessaires ?

Arbiel

#10 Re : -1 »  [Résolu] Gestion des droits d'accès fichiers+dossiers d'un serveur ssh » Le 16/09/2014, à 00:42

Arbiel
Réponses : 12

Bonsoir

Je reviens bien tardivement reprendre mon apprentissage de la gestion et l'exploitation d'un serveur.

@tiramiseb

Je comprends de ton explication, dont je te remercie, que les paramètres uid et gid ont comme objet de faire correspondre l'utilisateur distant ("r") à l'utilisateur local dont l'uid est 1000 et de l'introduire dans le groupe dont le gid est 1000, l'utilisateur distant n'étant évidemment pas obligatoirement connu localement ni par son identifiant ni par son uid, de même que les groupes dans lesquels il est enregistré.

Ai-je bien compris ?

Pour ce qui concerne l'utilisation de sshfs avec l'utilisateur "root", le distant m'a demandé le mot de passe de "root" après que j'ai exécuté la commande

sshfs -o uid=1000 -o gid=1000 root@s-14-04-64-sda:/ '/home/remi/Réseau'

Après plusieurs essais infructueux, sans entrer de mot de passe, en entrant le mot de passe de r,  j'ai défini un mot de passe pour root dans la machine serveur avec la commande

sudo passwd root

Cependant, le distant continue à refuser la connexion.

Dois-je modifier la commande sshfs ?

Arbiel

#11 Re : -1 »  [Résolu] Gestion des droits d'accès fichiers+dossiers d'un serveur ssh » Le 16/09/2014, à 11:19

Arbiel
Réponses : 12

remi@remi-Vostro-3550:~$ grep PermitRootLogin /etc/ssh/sshd_config
PermitRootLogin without-password
# the setting of "PermitRootLogin without-password".
remi@remi-Vostro-3550:~$

J'obtiens la même chose sur la machine distante.

Arbiel

#12 Re : -1 »  [Résolu] Gestion des droits d'accès fichiers+dossiers d'un serveur ssh » Le 16/09/2014, à 11:31

Arbiel
Réponses : 12

Je vais regarder d'une part comment passer au serveur la clé SSH (j'envisage de louer un serveur par exemple chez OVH) et d'autre part comment donner à "r" les droits appropriés.

#13 Re : -1 »  [Résolu] Gestion des droits d'accès fichiers+dossiers d'un serveur ssh » Le 16/09/2014, à 15:18

Arbiel
Réponses : 12

Après avoir relu la documentation sur sshfs et ssh, je confirme que c'est bien sshfs que je veux utiliser, comme l'a parfaitement compris tiramiseb.

http://doc.ubuntu-fr.org/sshfs a écrit :

SshFS sert à monter sur son système de fichier, un autre système de fichier distant, à travers une connexion SSH, le tout avec des droits utilisateur. L'avantage est de manipuler les données distantes avec n'importe quel gestionnaire de fichier (Nautilus, Konqueror, ROX, ou même la ligne de commande), ce qui est bien plus pratique que la commande scp couplée avec ssh.

#14 Re : -1 »  [Résolu] Gestion des droits d'accès fichiers+dossiers d'un serveur ssh » Le 17/09/2014, à 01:04

Arbiel
Réponses : 12

Bonsoir

J'ai enfin réussi à modifier le fichier /etc/ssh/sshd_config du serveur et à lui faire accepter la connexion de root avec un mot de passe. Je me lancerai plus tard dans l'utilisation de clés ssh. J'avais de toutes façons besoin de cette étape pour mettre en œuvre l'authentification par clés.

Merci encore tiramiseb.

Arbiel

#16 Re : -1 »  Interface graphique pour un programme en ligne de commande » Le 30/07/2014, à 22:52

Arbiel
Réponses : 23

Bonsoir

J'utilise depuis quelque temps "zenity" qui est assez simple. Cependant, dans ton cas, comme tu veux localiser plusieurs fichiers et demander plusieurs paramètres, il va te falloir une succession d'écrans, autant que de fichiers à localiser et de paramètres à initialiser, chaque écran ne te donnant qu'une seule information.

"yad", qui n'est pas disponible en binaire (autant que je sache) te permettrait de saisir plusieurs informations avec un seul écran. ce qui est plus confortable.

Je suis actuellement peu disponible, mais disposé à t'aider dans l'utilisation de l'un ou l'autre de ces deux produits.

Arbiel

#17 Re : -1 »  Interface graphique pour un programme en ligne de commande » Le 31/07/2014, à 16:41

Arbiel
Réponses : 23

Ma proposition ne couvre que GNU/Linux. Mais pour répondre à la demande de Fly0s, nul besoin, à mon avis, d'un produit multiplateforme. L'important est de proposer à ses utilisateurs, fût-ce avec trois produits différents, des interfaces qui soient, si ce n'est strictement identiques, du moins suffisamment semblables pour qu'ils puissent passer, le cas échéant, de l'une à l'autre sans trop de difficultés.

yad http://sourceforge.net/projects/yad-dialog/

Avec Windows, j'ai utilisé Virtual Basic pour écrire une petite application. qui n'a pu aboutir qu'après mon passage à GNU/Linux et le recours à VirtualBox, Je n'ai plus beaucoup de souvenirs de ce langage.

Je n'ai par ailleurs aucune connaissance des logiciels Mac.

Arbiel

#18 Re : -1 »  [RESOLU]Hal et Udev » Le 30/07/2014, à 22:32

Arbiel
Réponses : 6

Bonsoir

Les paquets sont gérés, en interface graphique, par synaptic.

Tu lances synaptic, qui va te demander ton mot de passe pour passer en mode administrateur. tu cherches les paquets "hal", tu fais un clic droit sur ceux que tu veux supprimer, ce qui ouvre une fenêtre dans laquelle tu peux choisir le type de désinstallation.

Arbiel

#19 -1 »  [Résolu] Réseau entre hôte et invitées VirtualBox » Le 03/08/2014, à 01:10

Arbiel
Réponses : 2

Bonsoir à tous

Je veux mettre en place mon propre serveur (fichiers, messagerie) et avant de me lancer, je veux m'exercer avec VirtualBox. J'ai créée une machine virtuelle invitée avec Ubuntu-server que j'essaie de faire communiquer avec la machine hôte. Je me suis appuyé sur cette page pour paramétrer le réseau de ma machine invitée, mais les informations des machines hôte et invitée ne me semblent pas compatibles.

Ma machine hôte est actuellement raccordée à internet par le biais de mon téléphone, connecté par un port USB, qui fait office de pont vers le réseau 3G.

ifconfig a écrit :

eth0      Link encap:Ethernet  HWaddr 78:2b:cb:de:6e:9b 
          UP BROADCAST MULTICAST  MTU:1500  Metric:1
          Packets reçus:0 erreurs:0 :0 overruns:0 frame:0
          TX packets:0 errors:0 dropped:0 overruns:0 carrier:0
          collisions:0 lg file transmission:1000
          Octets reçus:0 (0.0 B) Octets transmis:0 (0.0 B)

lo        Link encap:Boucle locale 
          inet adr:127.0.0.1  Masque:255.0.0.0
          adr inet6: ::1/128 Scope:Hôte
          UP LOOPBACK RUNNING  MTU:65536  Metric:1
          Packets reçus:472 erreurs:0 :0 overruns:0 frame:0
          TX packets:472 errors:0 dropped:0 overruns:0 carrier:0
          collisions:0 lg file transmission:0
          Octets reçus:50656 (50.6 KB) Octets transmis:50656 (50.6 KB)

usb0      Link encap:Ethernet  HWaddr 02:30:6f:69:6d:55 
          inet adr:192.168.42.163  Bcast:192.168.42.255  Masque:255.255.255.0
          adr inet6: fe80::30:6fff:fe69:6d55/64 Scope:Lien
          UP BROADCAST RUNNING MULTICAST  MTU:1500  Metric:1
          Packets reçus:477 erreurs:1 :0 overruns:0 frame:1
          TX packets:573 errors:0 dropped:0 overruns:0 carrier:0
          collisions:0 lg file transmission:1000
          Octets reçus:177374 (177.3 KB) Octets transmis:93769 (93.7 KB)

wlan0     Link encap:Ethernet  HWaddr bc:77:37:3b:ac:1d 
          UP BROADCAST MULTICAST  MTU:1500  Metric:1
          Packets reçus:0 erreurs:0 :0 overruns:0 frame:0
          TX packets:0 errors:0 dropped:0 overruns:0 carrier:0
          collisions:0 lg file transmission:1000
          Octets reçus:0 (0.0 B) Octets transmis:0 (0.0 B)

Sur la machine invitée, je n'ai pas réussi à copier le résultat de ifconfig pour le coller ici (j'imagine que mon terminal y est moins complet que sur mon système hôte). J'y ai deux ports de communication dont les caractéristiques sont les suivantes
eth0 : 10.0.2.15
l0   : 127.0.0.1

Pour communiquer, les deux machines ne devraient-elles pas être sur le même réseau ? Des pings de ma machine hôte vers 10.0.2.15 restent sans réponse, mais des ping depuis la machine invitée vers 192.168.42.163 reçoivent des réponses avec un temps de réaction de 0,5 ms. Par ailleurs ma machine invitée accède à internet.
La configuration réseau de ma machine invitée est la suivante :

VBoxManage showvminfo s14_04_64 a écrit :

………
NIC 1:           MAC: 0800275C05A1, Attachment: NAT, Cable connected: on, Trace: off (file: none), Type: 82540EM, Reported speed: 0 Mbps, Boot priority: 0, Promisc Policy: deny, Bandwidth group: none
NIC 1 Settings:  MTU: 0, Socket (send: 64, receive: 64), TCP Window (send:64, receive: 64)
NIC 2:           MAC: 08002754608D, Attachment: Bridged Interface 'usb0', Cable connected: on, Trace: off (file: none), Type: 82540EM, Reported speed: 0 Mbps, Boot priority: 0, Promisc Policy: allow-all, Bandwidth group: none
……

Par ailleurs, je suis peu informé de la technologie réseau. Où puis-je trouver des explications pour débutant. En particulier, qui communique par l0?

Merci d'avance à qui pourra me mettre sur la voie.

Arbiel

#20 Re : -1 »  [Résolu] Réseau entre hôte et invitées VirtualBox » Le 03/08/2014, à 10:47

Arbiel
Réponses : 2

Bonjour airvb

Merci pour ton aide. Mes machines se trouvent bien maintenant sur le même réseau.

Arbiel

#21 Re : -1 »  thunderbird ne souvre pas avec le lanceur de Unity » Le 30/07/2014, à 23:11

Arbiel
Réponses : 2

Bonsoir

Peut-être le lanceur est-il erroné ?

Il se trouve en
/usr/share/applications/thunderbird.desktop

Arbiel

#22 Re : -1 »  pavé tactile » Le 10/07/2014, à 15:22

Arbiel
Réponses : 2

Bonjour

Peut-être peux-tu analyser les différences dans la réponse à la commande

xinput --list --short

passée dans chacun des trois comptes.

#23 -1 »  Quelle est la signification de "env=C" devant une commande » Le 01/07/2014, à 18:47

Arbiel
Réponses : 5

Bonsoir à tous

J'essaie d'adapter un script dans lequel je trouve la commande suivante

env=C xinput list --short

Merci d'avance à qui voudra bien m'indiquer ce que ce "env=C" signifie.

Arbiel

#24 Re : -1 »  Quelle est la signification de "env=C" devant une commande » Le 06/07/2014, à 17:45

Arbiel
Réponses : 5

Bonjour

1) Non, je ne savais pas que l'initialisation d'une variable d'environnement pouvait se faire sans le recours à la commande env. Pour moi, la manière de faire était la suivante

man env a écrit :

NAME
       env - run a program in a modified environment

SYNOPSIS
       env [OPTION]... [-] [NAME=VALUE]... [COMMAND [ARG]...]

DESCRIPTION
       Set each NAME to VALUE in the environment and run COMMAND.

J'ai bien vu la commande de Zakhar

if LANG=C diff -s file1 file2 | grep -q identical; then echo "Identical"; fi

qui montre que "env" serait facultatif.

2) Par ailleurs "env" n'est pas, à ma connaissance, une variable d'environnement, toutes les variables d'environnement étant en majuscules. Dans la commande,

env=C xinput list --short

env n'est ni la commande env dont je parle en 1, ni une variable d'environnement.

Donc je pose à nouveau ma question : que signifie "env=C", qui me semble tout à fait différent de LANG=C ?

Arbiel