Contenu | Rechercher | Menus

Annonce

Si vous rencontrez des soucis à rester connecté sur le forum (ou si vous avez perdu votre mot de passe) déconnectez-vous et reconnectez-vous depuis cette page, en cochant la case "Me connecter automatiquement lors de mes prochaines visites".
nombre réponses : 25

#0 Re : -1 »  StreamStudio, application streaming youtube/dailymotion/torrents... » Le 06/03/2015, à 14:26

cdjklm
Réponses : 1527

effectivement dans la version testing mon problème es réglé :-) ,et le nouveau thème es bien sympathique,par contre les titre sur cpasbien se chevauche ou passe en dessous des images du film suivant,merci en tout cas pour cette réactivité et continuer sur cette voie :-)

#1 Re : -1 »  StreamStudio, application streaming youtube/dailymotion/torrents... » Le 06/03/2015, à 17:33

cdjklm
Réponses : 1527

1425655776.png,

bon désolé la mienne es plus petite que celle à Beaver,j a pas trouvé comment faire :-(

#2 Re : -1 »  StreamStudio, application streaming youtube/dailymotion/torrents... » Le 06/03/2015, à 21:04

cdjklm
Réponses : 1527

effectivement,la honte lol ,ca marche impec ;-) merci,juste le chiffre de nombre de film

1425668647.png

#4 Re : -1 »  StreamStudio, application streaming youtube/dailymotion/torrents... » Le 07/03/2015, à 18:18

cdjklm
Réponses : 1527

bein j ai réinstallé la version testing,retélécharger les pluguins ,ca ce lance mais ca lag grave j ai pris cela au cas ou:

1425744988.png

#5 Re : -1 »  StreamStudio, application streaming youtube/dailymotion/torrents... » Le 07/03/2015, à 18:48

cdjklm
Réponses : 1527

finalement rien ,petit problême de wifi

#6 Re : -1 »  StreamStudio, application streaming youtube/dailymotion/torrents... » Le 10/03/2015, à 18:33

cdjklm
Réponses : 1527

je viens de réinstaller la version testing ainsi que ses pluguins sous windows et impec,Beaver as tu bien réinstallé les plugins?quand j ai eu ton problème c est cela qui mrdé que m avait éxpliqué smo .

#7 Re : -1 »  StreamStudio, application streaming youtube/dailymotion/torrents... » Le 10/03/2015, à 21:30

cdjklm
Réponses : 1527

bein chez moi ça marche impec smo ;-)

#8 Re : -1 »  StreamStudio, application streaming youtube/dailymotion/torrents... » Le 20/03/2015, à 13:35

cdjklm
Réponses : 1527

les plugins c est les même que dans le poste #1416 ? je les ai pas trouvé sur streamstudio.me

#9 Re : -1 »  StreamStudio, application streaming youtube/dailymotion/torrents... » Le 20/03/2015, à 23:20

cdjklm
Réponses : 1527

coucou smo difficil d de te dire tout les tests,y a omg qui me dit impossible de récupérer les torrents,sur kikass rien ne se passe quand je click sur un torrent ça revient au choix de torrent ,desfois sur youtube et dayli tout le choix de résultat ne s affiche pas mais ceux qui m intéressent switch et cpasbien marche impec ;-)

#10 Re : -1 »  StreamStudio, application streaming youtube/dailymotion/torrents... » Le 21/03/2015, à 12:38

cdjklm
Réponses : 1527

oups désolé smo oublié de te prévenir mes test sont sous win ,comme mon linux es sur ma télé je préfère le garder la version  stable car je m en sert pratiquement tout les jours et comme ca marche impec je veux rien changer.

Edit:bon j ai éffectué la mise à jour tout à l air de fonctionner correctement desfois default d affichage mais je pense vient de ma connection,juste un truc sur t411 le navigateur envoi sur une pub lorsque l on click pour se connecter au site j ai du mi reprendre à plusieur fois avant que ca fonctionne,peut être y intégré un adblock règlerai ça si c est possible.merci en tout cas.

#11 Re : -1 »  StreamStudio, application streaming youtube/dailymotion/torrents... » Le 01/04/2015, à 21:33

cdjklm
Réponses : 1527

c est que pour linux ou également pour win?

#12 Re : -1 »  StreamStudio, application streaming youtube/dailymotion/torrents... » Le 08/04/2015, à 19:11

cdjklm
Réponses : 1527

@Legrand:peut être en allant dans les propriétés du fichier et en cochant

autoriser à éxécuter comme un programme

sinon décompréssé le .ded et exécuter l exécutable.

#13 Re : -1 »  StreamStudio, application streaming youtube/dailymotion/torrents... » Le 12/04/2015, à 11:43

cdjklm
Réponses : 1527

Bon dimanche a tous,j ai fais la mise a jour pt**** c est beau mais ca lague au niveau des torrents alors que youtube daylimotion pas de souci,voici le terminal pendant utilisation et j en met un autre a l ouverture de SS

lease use 'KeyboardEvent.location' instead.", source:  (0)
[3707:0412/113312:INFO:CONSOLE(31)] ""need restore"", source: file:///opt/streamstudio/js/jquery.nanoscroller.min.js (31)
[3707:0412/113315:INFO:CONSOLE(33)] ""UDP Client listening on 0.0.0.0:1900"", source: /opt/streamstudio/node_modules/upnp-client/lib/client.js (33)
ATTENTION: option value of option force_s3tc_enable ignored.
[3707:0412/113316:INFO:CONSOLE(11)] ""StreamStudio Transcoding Server ready on port 8887"", source: file:///opt/streamstudio/js/ht5server.js (11)
[3707:0412/113316:INFO:CONSOLE(534)] ""StreamStudio WebServer ready on port 8898"", source: file:///opt/streamstudio/js/ht5server.js (534)
[3707:0412/113318:INFO:CONSOLE(7)] ""seriesDb successfully loaded"", source: file:///opt/streamstudio/js/rss.js (7)
[3707:0412/113318:ERROR:nss_ocsp.cc(625)] No URLRequestContext for NSS HTTP handler. host: ocsp.digicert.com
[3707:0412/113318:ERROR:nss_ocsp.cc(625)] No URLRequestContext for NSS HTTP handler. host: ocsp.digicert.com
[3707:0412/113318:ERROR:nss_ocsp.cc(625)] No URLRequestContext for NSS HTTP handler. host: crl4.digicert.com
[3707:0412/113318:ERROR:nss_ocsp.cc(625)] No URLRequestContext for NSS HTTP handler. host: ocsp.digicert.com
[3707:0412/113318:ERROR:nss_ocsp.cc(625)] No URLRequestContext for NSS HTTP handler. host: ocsp.digicert.com
[3707:0412/113318:ERROR:nss_ocsp.cc(625)] No URLRequestContext for NSS HTTP handler. host: crl4.digicert.com
[3707:0412/113318:INFO:CONSOLE(30)] ""lastRev is : a4d6a886795765fd90f5d4fef4f7f013915aacde"", source: file:///opt/streamstudio/js/plugins.js (30)
[3707:0412/113319:INFO:CONSOLE(206)] ""Compare rev file..."", source: file:///opt/streamstudio/js/plugins.js (206)
[3707:0412/113320:INFO:CONSOLE(483)] ""Scanning: /usr/bin"", source: file:///opt/streamstudio/js/config.js (483)
[3707:0412/113320:INFO:CONSOLE(483)] ""Scanning: /usr/local/bin"", source: file:///opt/streamstudio/js/config.js (483)
[3707:0412/113320:INFO:CONSOLE(26)] ""freebox available, airplay enabled"", source: file:///opt/streamstudio/js/airmedia.js (26)
[3707:0412/113329:INFO:CONSOLE(13)] ""Checking for updates...."", source: file:///opt/streamstudio/js/update.js (13)
[3707:0412/113329:INFO:CONSOLE(18)] ""online version : 2.0.1, current version : 2.0.1"", source: file:///opt/streamstudio/js/update.js (18)
[3707:0412/113329:INFO:CONSOLE(41)] "Uncaught TypeError: Cannot read property 'split' of null", source: file:///opt/streamstudio/js/airmedia.js (41)
[3707:0412/113329:INFO:CONSOLE(522)] ""stdout: youtube-dl is up-to-date (2015.04.09)\n"", source: file:///opt/streamstudio/js/main.js (522)
[3707:0412/113339:INFO:CONSOLE(71)] ""STARTING DEVICES SEARCH...."", source: /opt/streamstudio/node_modules/upnp-client/lib/client.js (71)
[3707:0412/113347:INFO:CONSOLE(64)] ""chromecast-js: device discovery stopped"", source: /opt/streamstudio/node_modules/chromecast-js/index.js (64)
[3707:0412/113351:INFO:CONSOLE(145)] ""Loading cpasbien engine with localefr"", source: /home/cdjkllm/.config/StreamStudio/plugins/streamstudio-plugins-master/cpasbien/main.js (145)
[3707:0412/113431:INFO:CONSOLE(394)] ""peerrlifx listening on http://192.168.0.14:36833/"", source: file:///opt/streamstudio/js/flix.js (394)
[3707:0412/113438:INFO:CONSOLE(247)] ""[ www.Cpasbien.pw ] Diversion.2015.FRENCH.HC.HDRip.MD.XviD-KR4K3N.avi successfully added to database!"", source: file:///opt/streamstudio/js/flix.js (247)
[3707:0412/113438:INFO:CONSOLE(415)] ""http://192.168.0.14:36833/&torrent"", source: file:///opt/streamstudio/js/player.js (415)
[3707:0412/113438:INFO:CONSOLE(232)] ""Opening torrent link"", source: file:///opt/streamstudio/js/ht5server.js (232)
[3707:0412/113438:INFO:CONSOLE(450)] ""spawn : -ss,00:00:00.00,-re,-i,http://192.168.0.14:36833/,-sn,-vf,scale=trunc(iw/2)*2:trunc(ih/2)*2,-preset,ultrafast,-c:v,libx264,-c:a,copy,-threads,0,-f,matroska,pipe:1"", source: file:///opt/streamstudio/js/ht5server.js (450)
[3707:0412/113438:INFO:CONSOLE(467)] ""grep stderr: ffmpeg version 2.6.1-   http://johnvansickle.com/ffmpeg/    Copyright (c) 2000-2015 the FFmpeg developers\n  built with gcc 4.9.2 (Debian 4.9.2-10)\n  configuration: --enable-gpl --enable-version3 --disable-shared --disable-debug --enable-runtime-cpudetect --enable-libmp3lame --enable-libx264 --enable-libx265 --enable-libwebp --enable-libspeex --enable-libvorbis --enable-libvpx --enable-libfreetype --enable-fontconfig --enable-libxvid --enable-libopencore-amrnb --enable-libopencore-amrwb --enable-libtheora --enable-libvo-aacenc --enable-libvo-amrwbenc --enable-gray --enable-libopenjpeg --enable-libopus --enable-libass --enable-gnutls --enable-libvidstab --cc=gcc-4.9\n  libavutil      54. 20.100 / 54. 20.100\n  libavcodec     56. 26.100 / 56. 26.100\n  libavformat    56. 25.101 / 56. 25.101\n  libavdevice    56.  4.100 / 56.  4.100\n  libavfilter     5. 11.102 /  5. 11.102\n  libswscale      3.  1.101 /  3.  1.101\n  libswresample   1.  1.100 /  1.  1.100\n  libpostproc    53.  3.100 / 53.  3.100\n"", source: file:///opt/streamstudio/js/ht5server.js (467)
[3707:0412/113451:INFO:CONSOLE(467)] ""grep stderr: Input #0, avi, from 'http://192.168.0.14:36833/':\n  Metadata:\n    title           : Focus.2015.HC.HDRiP.FRENCH.MD.XViD-KR4K3N\n    copyright       : KR4K3N\n    comment         : Focus.2015.HC.HDRiP.FRENCH.MD.XViD-KR4K3N\n    encoder         : VirtualDub build 35491/releaseLavf56.16.102\n  Duration: 01:44:37.00, start: 0.000000, bitrate: 1738 kb/s\n    Stream #0:0: Video: mpeg4 (Simple Profile) (XVID / 0x44495658), yuv420p, 720x400 [SAR 246:247 DAR 2214:1235], 1599 kb/s, 30 fps, 30 tbr, 30 tbn, 30 tbc\n    Stream #0:1: Audio: mp3 (U[0][0][0] / 0x0055), 44100 Hz, stereo, s16p, 127 kb/s\n[libx264 @ 0xb1f6ee0] using SAR=246/247\n[libx264 @ 0xb1f6ee0] using cpu capabilities: MMX2 SSE2Fast SSSE3 Cache64 SlowCTZ SlowAtom SlowPshufb\n[libx264 @ 0xb1f6ee0] profile Constrained Baseline, level 3.0\n[libx264 @ 0xb1f6ee0] 264 - core 146 r61 121396c - H.264/MPEG-4 AVC codec - Copyleft 2003-2015 - http://www.videolan.org/x264.html - options: cabac=0 ref=1 deblock=0:0:0 analyse=0:0 me=dia subme=0 psy=1 psy_rd=1.00:0.00 mixed_ref=0 me_range=16 chroma_me=1 trellis=0 8x8dct=0 cqm=0 deadzone=21,11 fast_pskip=1 chroma_qp_offset=0 threads=3 lookahead_threads=1 sliced_threads=0 nr=0 decimate=1 interlaced=0 bluray_compat=0 constrained_intra=0 bframes=0 weightp=0 keyint=250 keyint_min=25 scenecut=0 intra_refresh=0 rc=crf mbtree=0 crf=23.0 qcomp=0.60 qpmin=0 qpmax=69 qpstep=4 ip_ratio=1.40 aq=0\nOutput #0, matroska, to 'pipe:1':\n  Metadata:\n    title           : Focus.2015.HC.HDRiP.FRENCH.MD.XViD-KR4K3N\n    copyright       : KR4K3N\n    comment         : Focus.2015.HC.HDRiP.FRENCH.MD.XViD-KR4K3N\n    encoder         : Lavf56.25.101\n    Stream #0:0: Video: h264 (libx264) (H264 / 0x34363248), yuv420p, 720x400 [SAR 246:247 DAR 2214:1235], q=-1--1, 30 fps, 1k tbn, 30 tbc\n    Metadata:\n      encoder         : Lavc56.26.100 libx264\n    Stream #0:1: Audio: mp3 (U[0][0][0] / 0x0055), 44100 Hz, stereo, 127 kb/s\nStream mapping:\n  Stream #0:0 -\u003E #0:0 (mpeg4 (native) -\u003E h264 (libx264))\n  Stream #0:1 -\u003E #0:1 (copy)\nPress [q] to stop, [?] for help\n"", source: file:///opt/streamstudio/js/ht5server.js (467)
[3707:0412/113451:INFO:CONSOLE(467)] ""grep stderr: frame=    0 fps=0.0 q=0.0 size=       1kB time=00:00:00.62 bitrate=  11.3kbits/s    \r"", source: file:///opt/streamstudio/js/ht5server.js (467)
[3707:0412/113452:INFO:CONSOLE(467)] ""grep stderr: frame=   13 fps= 13 q=17.0 size=       1kB time=00:00:01.04 bitrate=   6.8kbits/s    \r"", source: file:///opt/streamstudio/js/ht5server.js (467)
[3707:0412/113452:INFO:CONSOLE(467)] ""grep stderr: frame=   27 fps= 18 q=18.0 size=      34kB time=00:00:01.51 bitrate= 181.9kbits/s    \r"", source: file:///opt/streamstudio/js/ht5server.js (467)
[3707:0412/113453:INFO:CONSOLE(467)] ""grep stderr: frame=   38 fps= 18 q=23.0 size=      71kB time=00:00:01.88 bitrate= 310.0kbits/s    \r"", source: file:///opt/streamstudio/js/ht5server.js (467)
[3726:0412/113453:ERROR:gpu_video_decode_accelerator.cc(272)] Not implemented reached in void content::GpuVideoDecodeAccelerator::Initialize(media::VideoCodecProfile, IPC::Message*)HW video decode acceleration not available.
[3707:0412/113454:INFO:CONSOLE(467)] ""grep stderr: frame=   46 fps= 18 q=24.0 size=     150kB time=00:00:02.14 bitrate= 571.9kbits/s    \r"", source: file:///opt/streamstudio/js/ht5server.js (467)
[3707:0412/113454:INFO:CONSOLE(467)] ""grep stderr: frame=   56 fps= 18 q=24.0 size=     220kB time=00:00:02.48 bitrate= 724.8kbits/s    \r"", source: file:///opt/streamstudio/js/ht5server.js (467)
[3707:0412/113455:INFO:CONSOLE(467)] ""grep stderr: frame=   60 fps= 16 q=24.0 size=     255kB time=00:00:02.61 bitrate= 799.8kbits/s    \r"", source: file:///opt/streamstudio/js/ht5server.js (467)
[3707:0412/113455:INFO:CONSOLE(467)] ""grep stderr: frame=   64 fps= 15 q=24.0 size=     255kB time=00:00:02.74 bitrate= 761.6kbits/s    \r"", source: file:///opt/streamstudio/js/ht5server.js (467)
[3707:0412/113456:INFO:CONSOLE(467)] ""grep stderr: frame=   71 fps= 15 q=25.0 size=     325kB time=00:00:02.97 bitrate= 894.6kbits/s    \r"", source: file:///opt/streamstudio/js/ht5server.js (467)
[3707:0412/113456:INFO:CONSOLE(467)] ""grep stderr: frame=   74 fps= 14 q=25.0 size=     361kB time=00:00:03.08 bitrate= 958.6kbits/s    \r"", source: file:///opt/streamstudio/js/ht5server.js (467)
[3707:0412/113457:INFO:CONSOLE(467)] ""grep stderr: frame=   78 fps= 13 q=25.0 size=     399kB time=00:00:03.21 bitrate=1017.3kbits/s    \r"", source: file:///opt/streamstudio/js/ht5server.js (467)
[3707:0412/113457:INFO:CONSOLE(467)] ""grep stderr: frame=   85 fps= 13 q=27.0 size=     477kB time=00:00:03.44 bitrate=1133.1kbits/s    \r"", source: file:///opt/streamstudio/js/ht5server.js (467)
[3707:0412/113458:INFO:CONSOLE(467)] ""grep stderr: frame=   98 fps= 14 q=28.0 size=     670kB time=00:00:03.89 bitrate=1411.1kbits/s    \r"", source: file:///opt/streamstudio/js/ht5server.js (467)
[3707:0412/113458:INFO:CONSOLE(467)] ""grep stderr: frame=  108 fps= 14 q=28.0 size=     822kB time=00:00:04.20 bitrate=1601.0kbits/s    \r"", source: file:///opt/streamstudio/js/ht5server.js (467)
[3707:0412/113459:INFO:CONSOLE(467)] ""grep stderr: frame=  113 fps= 14 q=28.0 size=     898kB time=00:00:04.38 bitrate=1675.7kbits/s    \r"", source: file:///opt/streamstudio/js/ht5server.js (467)
[3707:0412/113459:INFO:CONSOLE(467)] ""grep stderr: frame=  120 fps= 14 q=27.0 size=     976kB time=00:00:04.62 bitrate=1729.0kbits/s    \r"", source: file:///opt/streamstudio/js/ht5server.js (467)
[3707:0412/113500:INFO:CONSOLE(467)] ""grep stderr: frame=  133 fps= 15 q=25.0 size=    1186kB time=00:00:05.04 bitrate=1927.7kbits/s    \r"", source: file:///opt/streamstudio/js/ht5server.js (467)
[3707:0412/113501:INFO:CONSOLE(467)] ""grep stderr: frame=  149 fps= 15 q=26.0 size=    1367kB time=00:00:05.59 bitrate=2002.6kbits/s    \r"", source: file:///opt/streamstudio/js/ht5server.js (467)
[3707:0412/113501:INFO:CONSOLE(467)] ""grep stderr: frame=  166 fps= 16 q=23.0 size=    1547kB time=00:00:06.13 bitrate=2064.9kbits/s    \r"", source: file:///opt/streamstudio/js/ht5server.js (467)
[3707:0412/113502:INFO:CONSOLE(467)] ""grep stderr: frame=  173 fps= 16 q=21.0 size=    1587kB time=00:00:06.37 bitrate=2039.7kbits/s    \r"", source: file:///opt/streamstudio/js/ht5server.js (467)
[3707:0412/113502:INFO:CONSOLE(467)] ""grep stderr: frame=  179 fps= 16 q=23.0 size=    1658kB time=00:00:06.58 bitrate=2062.9kbits/s    \r"", source: file:///opt/streamstudio/js/ht5server.js (467)
[3707:0412/113503:INFO:CONSOLE(467)] ""grep stderr: frame=  185 fps= 15 q=29.0 size=    1729kB time=00:00:06.79 bitrate=2085.2kbits/s    \r"", source: file:///opt/streamstudio/js/ht5server.js (467)
[3707:0412/113504:INFO:CONSOLE(467)] ""grep stderr: frame=  190 fps= 15 q=26.0 size=    1782kB time=00:00:06.95 bitrate=2100.2kbits/s    \r"", source: file:///opt/streamstudio/js/ht5server.js (467)
[3707:0412/113504:INFO:CONSOLE(467)] ""grep stderr: frame=  199 fps= 15 q=26.0 size=    1940kB time=00:00:07.23 bitrate=2195.8kbits/s    \r"", source: file:///opt/streamstudio/js/ht5server.js (467)
[3707:0412/113505:INFO:CONSOLE(467)] ""grep stderr: frame=  215 fps= 16 q=27.0 size=    2217kB time=00:00:07.78 bitrate=2333.7kbits/s    \r"", source: file:///opt/streamstudio/js/ht5server.js (467)
[3707:0412/113505:INFO:CONSOLE(467)] ""grep stderr: frame=  231 fps= 16 q=26.0 size=    2442kB time=00:00:08.30 bitrate=2408.2kbits/s    \r"", source: file:///opt/streamstudio/js/ht5server.js (467)
[3707:0412/113506:INFO:CONSOLE(467)] ""grep stderr: frame=  248 fps= 17 q=23.0 size=    2693kB time=00:00:08.88 bitrate=2484.2kbits/s    \r"", source: file:///opt/streamstudio/js/ht5server.js (467)
[3707:0412/113506:INFO:CONSOLE(467)] ""grep stderr: frame=  268 fps= 18 q=22.0 size=    2948kB time=00:00:09.53 bitrate=2533.0kbits/s    \r"", source: file:///opt/streamstudio/js/ht5server.js (467)
[3707:0412/113507:INFO:CONSOLE(467)] ""grep stderr: frame=  289 fps= 18 q=22.0 size=    3143kB time=00:00:10.24 bitrate=2514.1kbits/s    \r"", source: file:///opt/streamstudio/js/ht5server.js (467)
[3707:0412/113508:INFO:CONSOLE(467)] ""grep stderr: frame=  299 fps= 18 q=22.0 size=    3261kB time=00:00:10.58 bitrate=2524.4kbits/s    \rframe=  312 fps= 19 q=22.0 size=    3373kB time=00:00:11.02 bitrate=2506.8kbits/s    \r"", source: file:///opt/streamstudio/js/ht5server.js (467)
[3707:0412/113508:INFO:CONSOLE(467)] ""grep stderr: frame=  318 fps= 18 q=20.0 size=    3446kB time=00:00:11.20 bitrate=2518.8kbits/s    \r"", source: file:///opt/streamstudio/js/ht5server.js (467)
[3707:0412/113509:INFO:CONSOLE(467)] ""grep stderr: frame=  328 fps= 18 q=19.0 size=    3513kB time=00:00:11.54 bitrate=2492.2kbits/s    \r"", source: file:///opt/streamstudio/js/ht5server.js (467)
[3707:0412/113509:INFO:CONSOLE(467)] ""grep stderr: frame=  338 fps= 18 q=16.0 size=    3582kB time=00:00:11.88 bitrate=2468.6kbits/s    \r"", source: file:///opt/streamstudio/js/ht5server.js (467)
[3707:0412/113510:INFO:CONSOLE(467)] ""grep stderr: frame=  348 fps= 18 q=16.0 size=    3615kB time=00:00:12.22 bitrate=2422.6kbits/s    \r"", source: file:///opt/streamstudio/js/ht5server.js (467)
[3707:0412/113510:INFO:CONSOLE(467)] ""grep stderr: frame=  356 fps= 18 q=18.0 size=    3648kB time=00:00:12.48 bitrate=2393.3kbits/s    \r"", source: file:///opt/streamstudio/js/ht5server.js (467)
[3707:0412/113511:INFO:CONSOLE(467)] ""grep stderr: frame=  364 fps= 18 q=16.0 size=    3648kB time=00:00:12.74 bitrate=2344.5kbits/s    \r"", source: file:///opt/streamstudio/js/ht5server.js (467)
[3707:0412/113512:INFO:CONSOLE(467)] ""grep stderr: frame=  371 fps= 18 q=17.0 size=    3685kB time=00:00:12.98 bitrate=2325.1kbits/s    \r"", source: file:///opt/streamstudio/js/ht5server.js (467)
[3707:0412/113512:INFO:CONSOLE(467)] ""grep stderr: frame=  377 fps= 18 q=17.0 size=    3685kB time=00:00:13.19 bitrate=2288.2kbits/s    \r"", source: file:///opt/streamstudio/js/ht5server.js (467)
[3707:0412/113513:INFO:CONSOLE(467)] ""grep stderr: frame=  385 fps= 18 q=18.0 size=    3718kB time=00:00:13.45 bitrate=2263.9kbits/s    \r"", source: file:///opt/streamstudio/js/ht5server.js (467)
[3707:0412/113513:INFO:CONSOLE(467)] ""grep stderr: frame=  396 fps= 18 q=18.0 size=    3752kB time=00:00:13.81 bitrate=2224.1kbits/s    \r"", source: file:///opt/streamstudio/js/ht5server.js (467)
[3707:0412/113514:INFO:CONSOLE(467)] ""grep stderr: frame=  412 fps= 18 q=24.0 size=    3874kB time=00:00:14.34 bitrate=2212.9kbits/s    \r"", source: file:///opt/streamstudio/js/ht5server.js (467)
[3707:0412/113514:INFO:CONSOLE(467)] ""grep stderr: frame=  436 fps= 19 q=15.0 size=    3939kB time=00:00:15.15 bitrate=2130.0kbits/s    \r"", source: file:///opt/streamstudio/js/ht5server.js (467)
[3707:0412/113515:INFO:CONSOLE(467)] ""grep stderr: frame=  457 fps= 19 q=19.0 size=    3972kB time=00:00:15.85 bitrate=2052.2kbits/s    \r"", source: file:///opt/streamstudio/js/ht5server.js (467)
[3707:0412/113515:INFO:CONSOLE(467)] ""grep stderr: frame=  480 fps= 20 q=20.0 size=    4037kB time=00:00:16.61 bitrate=1990.7kbits/s    \r"", source: file:///opt/streamstudio/js/ht5server.js (467)
[3707:0412/113516:INFO:CONSOLE(467)] ""grep stderr: frame=  492 fps= 20 q=22.0 size=    4107kB time=00:00:17.00 bitrate=1978.5kbits/s    \r"", source: file:///opt/streamstudio/js/ht5server.js (467)
[3707:0412/113516:INFO:CONSOLE(467)] ""grep stderr: frame=  503 fps= 20 q=18.0 size=    4143kB time=00:00:17.37 bitrate=1953.5kbits/s    \r"", source: file:///opt/streamstudio/js/ht5server.js (467)
[3707:0412/113517:INFO:CONSOLE(467)] ""grep stderr: frame=  515 fps= 20 q=20.0 size=    4196kB time=00:00:17.79 bitrate=1932.0kbits/s    \r"", source: file:///opt/streamstudio/js/ht5server.js (467)
[3707:0412/113517:INFO:CONSOLE(467)] ""grep stderr: frame=  524 fps= 20 q=21.0 size=    4196kB time=00:00:18.07 bitrate=1901.3kbits/s    \r"", source: file:///opt/streamstudio/js/ht5server.js (467)
[3707:0412/113518:INFO:CONSOLE(467)] ""grep stderr: frame=  531 fps= 20 q=22.0 size=    4230kB time=00:00:18.31 bitrate=1892.2kbits/s    \r"", source: file:///opt/streamstudio/js/ht5server.js (467)
[3707:0412/113518:INFO:CONSOLE(467)] ""grep stderr: frame=  540 fps= 20 q=22.0 size=    4265kB time=00:00:18.62 bitrate=1876.0kbits/s    \r"", source: file:///opt/streamstudio/js/ht5server.js (467)
[3707:0412/113519:INFO:CONSOLE(467)] ""grep stderr: frame=  551 fps= 20 q=23.0 size=    4335kB time=00:00:18.99 bitrate=1870.1kbits/s    \r"", source: file:///opt/streamstudio/js/ht5server.js (467)
[3707:0412/113520:INFO:CONSOLE(467)] ""grep stderr: frame=  561 fps= 20 q=24.0 size=    4369kB time=00:00:19.30 bitrate=1854.0kbits/s    \r"", source: file:///opt/streamstudio/js/ht5server.js (467)
[3707:0412/113520:INFO:CONSOLE(467)] ""grep stderr: frame=  569 fps= 20 q=22.0 size=    4440kB time=00:00:19.59 bitrate=1856.5kbits/s    \r"", source: file:///opt/streamstudio/js/ht5server.js (467)
[3707:0412/113521:INFO:CONSOLE(467)] ""grep stderr: frame=  577 fps= 20 q=22.0 size=    4472kB time=00:00:19.85 bitrate=1845.4kbits/s    \r"", source: file:///opt/streamstudio/js/ht5server.js (467)
[3707:0412/113521:INFO:CONSOLE(467)] ""grep stderr: frame=  585 fps= 19 q=25.0 size=    4510kB time=00:00:20.11 bitrate=1836.8kbits/s    \r"", source: file:///opt/streamstudio/js/ht5server.js (467)
[3707:0412/113522:INFO:CONSOLE(467)] ""grep stderr: frame=  592 fps= 19 q=25.0 size=    4575kB time=00:00:20.35 bitrate=1841.6kbits/s    \r"", source: file:///opt/streamstudio/js/ht5server.js (467)
[3707:0412/113522:INFO:CONSOLE(467)] ""grep stderr: frame=  600 fps= 19 q=24.0 size=    4611kB time=00:00:20.61 bitrate=1832.8kbits/s    \r"", source: file:///opt/streamstudio/js/ht5server.js (467)
[3707:0412/113523:INFO:CONSOLE(467)] ""grep stderr: frame=  606 fps= 19 q=24.0 size=    4645kB time=00:00:20.82 bitrate=1827.4kbits/s    \r"", source: file:///opt/streamstudio/js/ht5server.js (467)
[3707:0412/113523:INFO:CONSOLE(467)] ""grep stderr: frame=  627 fps= 19 q=20.0 size=    4750kB time=00:00:21.52 bitrate=1807.9kbits/s    \r"", source: file:///opt/streamstudio/js/ht5server.js (467)
[3707:0412/113524:INFO:CONSOLE(467)] ""grep stderr: frame=  659 fps= 20 q=17.0 size=    4850kB time=00:00:22.57 bitrate=1760.3kbits/s    \r"", source: file:///opt/streamstudio/js/ht5server.js (467)
[3707:0412/113524:INFO:CONSOLE(467)] ""grep stderr: frame=  677 fps= 20 q=15.0 size=    4882kB time=00:00:23.17 bitrate=1726.0kbits/s    \r"", source: file:///opt/streamstudio/js/ht5server.js (467)
[3707:0412/113525:INFO:CONSOLE(467)] ""grep stderr: frame=  704 fps= 21 q=16.0 size=    4916kB time=00:00:24.08 bitrate=1672.0kbits/s    \r"", source: file:///opt/streamstudio/js/ht5server.js (467)
[3707:0412/113525:INFO:CONSOLE(467)] ""grep stderr: frame=  729 fps= 21 q=13.0 size=    4948kB time=00:00:24.92 bitrate=1626.5kbits/s    \r"", source: file:///opt/streamstudio/js/ht5server.js (467)
[3707:0412/113526:INFO:CONSOLE(467)] ""grep stderr: frame=  741 fps= 21 q=13.0 size=    4948kB time=00:00:25.31 bitrate=1601.3kbits/s    \r"", source: file:///opt/streamstudio/js/ht5server.js (467)
[3707:0412/113526:INFO:CONSOLE(467)] ""grep stderr: frame=  749 fps= 21 q=22.0 size=    5002kB time=00:00:25.57 bitrate=1602.4kbits/s    \r"", source: file:///opt/streamstudio/js/ht5server.js (467)
[3707:0412/113527:INFO:CONSOLE(467)] ""grep stderr: frame=  756 fps= 21 q=21.0 size=    5112kB time=00:00:25.80 bitrate=1622.7kbits/s    \r"", source: file:///opt/streamstudio/js/ht5server.js (467)
ATTENTION: option value of option force_s3tc_enable ignored.
[3707:0412/113528:INFO:CONSOLE(564)] ""stopping torrent :[ www.Cpasbien.pw ] Diversion.2015.FRENCH.HC.HDRip.MD.XviD-KR4K3N.avi"", source: file:///opt/streamstudio/js/functions.js (564)
[3707:0412/113528:INFO:CONSOLE(467)] ""grep stderr: frame=  761 fps= 21 q=20.0 size=    5152kB time=00:00:25.99 bitrate=1623.6kbits/s    \r"", source: file:///opt/streamstudio/js/ht5server.js (467)
[3707:0412/113529:INFO:CONSOLE(500)] ""file  removed"", source: file:///opt/streamstudio/js/functions.js (500)
[3707:0412/113537:INFO:CONSOLE(1070)] "", source: file:///opt/streamstudio/js/main.js (1070)
[3707:0412/113547:INFO:CONSOLE(1602)] "", source: file:///opt/streamstudio/js/main.js (1602)
[3707:0412/113604:INFO:CONSOLE(415)] ""https://r5---sn-4gxx-hgne.googlevideo.com/videoplayback?source=youtube&ms=au&mt=1428831288&mv=m&mm=31&requiressl=yes&key=yt5&id=o-ALdvqvKlRwLberKhGUFLLIpLx512T4Mfh0SB0InnwxIe&upn=htI6U1qhITU&initcwndbps=708750&sparams=dur%2Cid%2Cinitcwndbps%2Cip%2Cipbits%2Citag%2Cmime%2Cmm%2Cms%2Cmv%2Cpl%2Cratebypass%2Crequiressl%2Csource%2Cupn%2Cexpire&fexp=900720%2C907263%2C932627%2C932631%2C934962%2C9406621%2C9407092%2C9407441%2C9408347%2C9408674%2C9408705%2C9408787%2C9408919%2C947243%2C948124%2C948703%2C951703%2C952612%2C957201%2C961404%2C961406%2C964756&ip=82.246.38.203&dur=0.000&sver=3&expire=1428852962&pl=19&ratebypass=yes&mime=video%2Fwebm&itag=43&ipbits=0&signature=5FA8722CFA503E1E1D2D52C661DF349306BB2BE3.2CA347AC6CCE50232918165504259752EE3C560A::https://r5---sn-4gxx-hgne.googlevideo.com/videoplayback?id=09516b971866f1a6&itag=171&source=youtube&requiressl=yes&pl=19&ms=au&mm=31&mv=m&ratebypass=yes&mime=audio/webm&gir=yes&clen=72785287&lmt=1427364731683277&dur=6081.914&upn=htI6U1qhITU&sver=3&mt=1428831288&key=dg_yt0&fexp=900720,907263,932627,932631,934962,9406621,9407092,9407441,9408347,9408674,9408705,9408787,9408919,947243,948124,948703,951703,952612,957201,961404,961406,964756&signature=034326BF7C2DC4048A7ABC924B1522AC8D6E7F44.894FEEB8D0DB601C1562C551D960CAD3E0E760D0&ip=82.246.38.203&ipbits=0&expire=1428852962&sparams=ip,ipbits,expire,id,itag,source,requiressl,pl,ms,mm,mv,ratebypass,mime,gir,clen,lmt,dur "", source: file:///opt/streamstudio/js/player.js (415)
[3707:0412/113604:INFO:CONSOLE(190)] ""Opening youtube link"", source: file:///opt/streamstudio/js/ht5server.js (190)
[3707:0412/113604:INFO:CONSOLE(450)] ""spawn : -ss,00:00:00.00,-i,https://r5---sn-4gxx-hgne.googlevideo.com/videoplayback?source=youtube&ms=au&mt=1428831288&mv=m&mm=31&requiressl=yes&key=yt5&id=o-ALdvqvKlRwLberKhGUFLLIpLx512T4Mfh0SB0InnwxIe&upn=htI6U1qhITU&initcwndbps=708750&sparams=dur,id,initcwndbps,ip,ipbits,itag,mime,mm,ms,mv,pl,ratebypass,requiressl,source,upn,expire&fexp=900720,907263,932627,932631,934962,9406621,9407092,9407441,9408347,9408674,9408705,9408787,9408919,947243,948124,948703,951703,952612,957201,961404,961406,964756&ip=82.246.38.203&dur=0.000&sver=3&expire=1428852962&pl=19&ratebypass=yes&mime=video/webm&itag=43&ipbits=0&signature=5FA8722CFA503E1E1D2D52C661DF349306BB2BE3.2CA347AC6CCE50232918165504259752EE3C560A,-ss,00:00:00.00,-i,https://r5---sn-4gxx-hgne.googlevideo.com/videoplayback?id=09516b971866f1a6&itag=171&source=youtube&requiressl=yes&pl=19&ms=au&mm=31&mv=m&ratebypass=yes&mime=audio/webm&gir=yes&clen=72785287&lmt=1427364731683277&dur=6081.914&upn=htI6U1qhITU&sver=3&mt=1428831288&key=dg_yt0&fexp=900720,907263,932627,932631,934962,9406621,9407092,9407441,9408347,9408674,9408705,9408787,9408919,947243,948124,948703,951703,952612,957201,961404,961406,964756&signature=034326BF7C2DC4048A7ABC924B1522AC8D6E7F44.894FEEB8D0DB601C1562C551D960CAD3E0E760D0&ip=82.246.38.203&ipbits=0&expire=1428852962&sparams=ip,ipbits,expire,id,itag,source,requiressl,pl,ms,mm,mv,ratebypass,mime,gir,clen,lmt,dur,-preset,ultrafast,-deinterlace,-c:v,copy,-c:a,copy,-threads,0,-f,matroska,pipe:1"", source: file:///opt/streamstudio/js/ht5server.js (450)
[3707:0412/113604:INFO:CONSOLE(467)] ""grep stderr: ffmpeg version 2.6.1-   http://johnvansickle.com/ffmpeg/   "", source: file:///opt/streamstudio/js/ht5server.js (467)
[3707:0412/113604:INFO:CONSOLE(467)] ""grep stderr:  Copyright (c) 2000-2015 the FFmpeg developers"", source: file:///opt/streamstudio/js/ht5server.js (467)
[3707:0412/113604:INFO:CONSOLE(467)] ""grep stderr: \n"", source: file:///opt/streamstudio/js/ht5server.js (467)
[3707:0412/113604:INFO:CONSOLE(467)] ""grep stderr:   built with gcc 4.9.2 (Debian 4.9.2-10)\n"", source: file:///opt/streamstudio/js/ht5server.js (467)
[3707:0412/113604:INFO:CONSOLE(467)] ""grep stderr:   configuration: --enable-gpl --enable-version3 --disable-shared --disable-debug --enable-runtime-cpudetect --enable-libmp3lame --enable-libx264 --enable-libx265 --enable-libwebp --enable-libspeex --enable-libvorbis --enable-libvpx --enable-libfreetype --enable-fontconfig --enable-libxvid --enable-libopencore-amrnb --enable-libopencore-amrwb --enable-libtheora --enable-libvo-aacenc --enable-libvo-amrwbenc --enable-gray --enable-libopenjpeg --enable-libopus --enable-libass --enable-gnutls --enable-libvidstab --cc=gcc-4.9\n"", source: file:///opt/streamstudio/js/ht5server.js (467)
[3707:0412/113604:INFO:CONSOLE(467)] ""grep stderr:   libavutil      54. 20.100 / 54. 20.100\n  libavcodec     56. 26.100 / 56. 26.100\n  libavformat    56. 25.101 / 56. 25.101\n"", source: file:///opt/streamstudio/js/ht5server.js (467)
[3707:0412/113604:INFO:CONSOLE(467)] ""grep stderr:   libavdevice    56.  4.100 / 56.  4.100\n  libavfilter     5. 11.102 /  5. 11.102\n  libswscale      3.  1.101 /  3.  1.101\n  libswresample   1.  1.100 /  1.  1.100\n  libpostproc    53.  3.100 / 53.  3.100\n"", source: file:///opt/streamstudio/js/ht5server.js (467)
[3707:0412/113606:INFO:CONSOLE(467)] ""grep stderr: Input #0, matroska,webm, from 'https://r5---sn-4gxx-hgne.googlevideo.com/videoplayback?source=youtube&ms=au&mt=1428831288&mv=m&mm=31&requiressl=yes&key=yt5&id=o-ALdvqvKlRwLberKhGUFLLIpLx512T4Mfh0SB0InnwxIe&upn=htI6U1qhITU&initcwndbps=708750&sparams=dur,id,initcwndbps,ip,ipbits,itag,mime,mm,ms,mv,pl,ratebypass,requiressl,source,upn,expire&fexp=900720,907263,932627,932631,934962,9406621,9407092,9407441,9408347,9408674,9408705,9408787,9408919,947243,948124,948703,951703,952612,957201,961404,961406,964756&ip=82.246.38.203&dur=0.000&sver=3&expire=1428852962&pl=19&ratebypass=yes&mime=video/webm&itag=43&ipbits=0&signature=5FA8722CFA503E1E1D2D52C661DF349306BB2BE3.2CA347AC6CCE50232918165504259752EE3C560A':\n  Metadata:\n    encoder         : Google\n  Duration: 01:41:21.94, start: 0.000000, bitrate: 591 kb/s\n    Stream #0:0: Video: vp8, yuv420p, 626x360, SAR 1:1 DAR 313:180, 25 fps, 25 tbr, 1k tbn, 1k tbc (default)\n    Stream #0:1: Audio: vorbis, 44100 Hz, stereo, fltp (default)\n"", source: file:///opt/streamstudio/js/ht5server.js (467)
[3707:0412/113607:INFO:CONSOLE(467)] ""grep stderr: Input #1, matroska,webm, from 'https://r5---sn-4gxx-hgne.googlevideo.com/videoplayback?id=09516b971866f1a6&itag=171&source=youtube&requiressl=yes&pl=19&ms=au&mm=31&mv=m&ratebypass=yes&mime=audio/webm&gir=yes&clen=72785287&lmt=1427364731683277&dur=6081.914&upn=htI6U1qhITU&sver=3&mt=1428831288&key=dg_yt0&fexp=900720,907263,932627,932631,934962,9406621,9407092,9407441,9408347,9408674,9408705,9408787,9408919,947243,948124,948703,951703,952612,957201,961404,961406,964756&signature=034326BF7C2DC4048A7ABC924B1522AC8D6E7F44.894FEEB8D0DB601C1562C551D960CAD3E0E760D0&ip=82.246.38.203&ipbits=0&expire=1428852962&sparams=ip,ipbits,expire,id,itag,source,requiressl,pl,ms,mm,mv,ratebypass,mime,gir,clen,lmt,dur':\n  Metadata:\n    encoder         : google\n  Duration: 01:41:21.91"", source: file:///opt/streamstudio/js/ht5server.js (467)
[3707:0412/113607:INFO:CONSOLE(467)] ""grep stderr: , start: 0.000000, bitrate: 95 kb/s\n    Stream #1:0(eng): Audio: vorbis, 44100 Hz, stereo, fltp (default)\nOutput #0, matroska, to 'pipe:1':\n  Metadata:\n    encoder         : Lavf56.25.101\n"", source: file:///opt/streamstudio/js/ht5server.js (467)
[3707:0412/113607:INFO:CONSOLE(467)] ""grep stderr:     Stream #0:0: Video: vp8 (VP80 / 0x30385056), yuv420p, 626x360 [SAR 1:1 DAR 313:180], q=2-31, 25 fps, 25 tbr, 1k tbn, 1k tbc (default)\n    Stream #0:1: Audio: vorbis (oV[0][0] / 0x566F), 44100 Hz, stereo (default)\nStream mapping:\n  Stream #0:0 -\u003E #0:0 (copy)\n  Stream #0:1 -\u003E #0:1 (copy)\nPress [q] to stop, [?] for help\n"", source: file:///opt/streamstudio/js/ht5server.js (467)
[3726:0412/113607:ERROR:gpu_video_decode_accelerator.cc(272)] Not implemented reached in void content::GpuVideoDecodeAccelerator::Initialize(media::VideoCodecProfile, IPC::Message*)HW video decode acceleration not available.
[3707:0412/113607:INFO:CONSOLE(467)] ""grep stderr: frame=  214 fps=0.0 q=-1.0 size=     405kB time=00:00:08.08 bitrate= 410.6kbits/s    \r"", source: file:///opt/streamstudio/js/ht5server.js (467)
[3707:0412/113608:INFO:CONSOLE(467)] ""grep stderr: frame=  265 fps=260 q=-1.0 size=     673kB time=00:00:10.09 bitrate= 546.0kbits/s    \r"", source: file:///opt/streamstudio/js/ht5server.js (467)
[3707:0412/113608:INFO:CONSOLE(467)] ""grep stderr: frame=  350 fps=229 q=-1.0 size=    1047kB time=00:00:13.30 bitrate= 644.6kbits/s    \r"", source: file:///opt/streamstudio/js/ht5server.js (467)
[3707:0412/113609:INFO:CONSOLE(467)] ""grep stderr: frame=  419 fps=206 q=-1.0 size=    1420kB time=00:00:15.92 bitrate= 730.7kbits/s    \r"", source: file:///opt/streamstudio/js/ht5server.js (467)
[3707:0412/113609:INFO:CONSOLE(467)] ""grep stderr: frame=  551 fps=215 q=-1.0 size=    1809kB time=00:00:20.96 bitrate= 707.2kbits/s    \r"", source: file:///opt/streamstudio/js/ht5server.js (467)
[3707:0412/113610:INFO:CONSOLE(467)] ""grep stderr: frame=  637 fps=205 q=-1.0 size=    2207kB time=00:00:24.16 bitrate= 748.2kbits/s    \r"", source: file:///opt/streamstudio/js/ht5server.js (467)
[3707:0412/113610:INFO:CONSOLE(467)] ""grep stderr: frame=  721 fps=199 q=-1.0 size=    2632kB time=00:00:27.44 bitrate= 785.6kbits/s    \r"", source: file:///opt/streamstudio/js/ht5server.js (467)
[3707:0412/113611:INFO:CONSOLE(467)] ""grep stderr: frame=  892 fps=216 q=-1.0 size=    3008kB time=00:00:33.84 bitrate= 728.2kbits/s    \r"", source: file:///opt/streamstudio/js/ht5server.js (467)
[3707:0412/113611:INFO:CONSOLE(467)] ""grep stderr: frame= 1070 fps=231 q=-1.0 size=    3415kB time=00:00:40.52 bitrate= 690.4kbits/s    \r"", source: file:///opt/streamstudio/js/ht5server.js (467)
[3707:0412/113612:INFO:CONSOLE(467)] ""grep stderr: frame= 1216 fps=237 q=-1.0 size=    3794kB time=00:00:46.04 bitrate= 675.0kbits/s    \r"", source: file:///opt/streamstudio/js/ht5server.js (467)
[3707:0412/113612:INFO:CONSOLE(467)] ""grep stderr: frame= 1534 fps=271 q=-1.0 size=    4165kB time=00:00:57.98 bitrate= 588.5kbits/s    \r"", source: file:///opt/streamstudio/js/ht5server.js (467)
[3707:0412/113613:INFO:CONSOLE(467)] ""grep stderr: frame= 1761 fps=285 q=-1.0 size=    4576kB time=00:01:06.53 bitrate= 563.4kbits/s    \r"", source: file:///opt/streamstudio/js/ht5server.js (467)
[3707:0412/113613:INFO:CONSOLE(467)] ""grep stderr: frame= 1860 fps=279 q=-1.0 size=    4987kB time=00:01:10.29 bitrate= 581.2kbits/s    \r"", source: file:///opt/streamstudio/js/ht5server.js (467)
[3707:0412/113614:INFO:CONSOLE(467)] ""grep stderr: frame= 1966 fps=274 q=-1.0 size=    5417kB time=00:01:14.26 bitrate= 597.5kbits/s    \r"", source: file:///opt/streamstudio/js/ht5server.js (467)
[3707:0412/113614:INFO:CONSOLE(467)] ""grep stderr: frame= 2139 fps=278 q=-1.0 size=    5802kB time=00:01:20.76 bitrate= 588.5kbits/s    \r"", source: file:///opt/streamstudio/js/ht5server.js (467)
[3707:0412/113615:INFO:CONSOLE(467)] ""grep stderr: frame= 2254 fps=274 q=-1.0 size=    6229kB time=00:01:25.08 bitrate= 599.8kbits/s    \r"", source: file:///opt/streamstudio/js/ht5server.js (467)
[3707:0412/113616:INFO:CONSOLE(467)] ""grep stderr: frame= 2408 fps=276 q=-1.0 size=    6689kB time=00:01:30.88 bitrate= 603.0kbits/s    \r"", source: file:///opt/streamstudio/js/ht5server.js (467)
[3707:0412/113616:INFO:CONSOLE(467)] ""grep stderr: frame= 2610 fps=283 q=-1.0 size=    7169kB time=00:01:38.48 bitrate= 596.4kbits/s    \r"", source: file:///opt/streamstudio/js/ht5server.js (467)
[3707:0412/113617:INFO:CONSOLE(467)] ""grep stderr: frame= 2787 fps=286 q=-1.0 size=    7608kB time=00:01:45.17 bitrate= 592.6kbits/s    \r"", source: file:///opt/streamstudio/js/ht5server.js (467)
[3707:0412/113617:INFO:CONSOLE(467)] ""grep stderr: frame= 2955 fps=289 q=-1.0 size=    8069kB time=00:01:51.51 bitrate= 592.8kbits/s    \r"", source: file:///opt/streamstudio/js/ht5server.js (467)
[3707:0412/113618:INFO:CONSOLE(467)] ""grep stderr: frame= 3089 fps=287 q=-1.0 size=    8498kB time=00:01:56.48 bitrate= 597.6kbits/s    \r"", source: file:///opt/streamstudio/js/ht5server.js (467)
[3707:0412/113618:INFO:CONSOLE(467)] ""grep stderr: frame= 3270 fps=291 q=-1.0 size=    8950kB time=00:02:03.32 bitrate= 594.6kbits/s    \r"", source: file:///opt/streamstudio/js/ht5server.js (467)
[3707:0412/113619:INFO:CONSOLE(467)] ""grep stderr: frame= 3507 fps=298 q=-1.0 size=    9387kB time=00:02:12.20 bitrate= 581.7kbits/s    \r"", source: file:///opt/streamstudio/js/ht5server.js (467)
[3707:0412/113619:INFO:CONSOLE(467)] ""grep stderr: frame= 3725 fps=304 q=-1.0 size=    9814kB time=00:02:20.45 bitrate= 572.4kbits/s    \r"", source: file:///opt/streamstudio/js/ht5server.js (467)
[3707:0412/113620:INFO:CONSOLE(467)] ""grep stderr: frame= 3928 fps=308 q=-1.0 size=   10263kB time=00:02:28.14 bitrate= 567.5kbits/s    \r"", source: file:///opt/streamstudio/js/ht5server.js (467)
[3707:0412/113620:INFO:CONSOLE(467)] ""grep stderr: frame= 4112 fps=310 q=-1.0 size=   10695kB time=00:02:35.10 bitrate= 564.9kbits/s    \r"", source: file:///opt/streamstudio/js/ht5server.js (467)
[3707:0412/113621:INFO:CONSOLE(467)] ""grep stderr: frame= 4271 fps=310 q=-1.0 size=   11151kB time=00:02:41.04 bitrate= 567.2kbits/s    \r"", source: file:///opt/streamstudio/js/ht5server.js (467)
[3707:0412/113629:INFO:CONSOLE(467)] ""grep stderr: frame= 4324 fps=192 q=-1.0 size=   11286kB time=00:02:43.04 bitrate= 567.1kbits/s    \r"", source: file:///opt/streamstudio/js/ht5server.js (467)
[3707:0412/113638:INFO:CONSOLE(467)] ""grep stderr: frame= 4616 fps=149 q=-1.0 size=   12098kB time=00:02:54.10 bitrate= 569.3kbits/s    \r"", source: file:///opt/streamstudio/js/ht5server.js (467)
cdjkllm@********:~$ streamstudio
[4120:0412/114159:ERROR:browser_main_loop.cc(170)] Running without the SUID sandbox! See https://code.google.com/p/chromium/wiki/LinuxSUIDSandboxDevelopment for more information on developing with the sandbox on.
ATTENTION: default value of option force_s3tc_enable overridden by environment.
ATTENTION: option value of option force_s3tc_enable ignored.
[4120:0412/114159:ERROR:nss_util.cc(819)] After loading Root Certs, loaded==false: NSS error code: -8018
ATTENTION: option value of option force_s3tc_enable ignored.
ATTENTION: option value of option force_s3tc_enable ignored.
[4120:0412/114201:INFO:CONSOLE(0)] "'KeyboardEvent.keyLocation' is deprecated. Please use 'KeyboardEvent.location' instead.", source:  (0)
[4120:0412/114201:INFO:CONSOLE(31)] ""need restore"", source: file:///opt/streamstudio/js/jquery.nanoscroller.min.js (31)
[4120:0412/114204:INFO:CONSOLE(33)] ""UDP Client listening on 0.0.0.0:1900"", source: /opt/streamstudio/node_modules/upnp-client/lib/client.js (33)
ATTENTION: option value of option force_s3tc_enable ignored.
[4120:0412/114205:INFO:CONSOLE(11)] ""StreamStudio Transcoding Server ready on port 8887"", source: file:///opt/streamstudio/js/ht5server.js (11)
[4120:0412/114205:INFO:CONSOLE(534)] ""StreamStudio WebServer ready on port 8898"", source: file:///opt/streamstudio/js/ht5server.js (534)
[4120:0412/114207:INFO:CONSOLE(7)] ""seriesDb successfully loaded"", source: file:///opt/streamstudio/js/rss.js (7)
[4120:0412/114207:ERROR:nss_ocsp.cc(625)] No URLRequestContext for NSS HTTP handler. host: ocsp.digicert.com
[4120:0412/114207:ERROR:nss_ocsp.cc(625)] No URLRequestContext for NSS HTTP handler. host: ocsp.digicert.com
[4120:0412/114207:ERROR:nss_ocsp.cc(625)] No URLRequestContext for NSS HTTP handler. host: crl4.digicert.com
[4120:0412/114207:ERROR:nss_ocsp.cc(625)] No URLRequestContext for NSS HTTP handler. host: ocsp.digicert.com
[4120:0412/114207:ERROR:nss_ocsp.cc(625)] No URLRequestContext for NSS HTTP handler. host: ocsp.digicert.com
[4120:0412/114207:ERROR:nss_ocsp.cc(625)] No URLRequestContext for NSS HTTP handler. host: crl4.digicert.com
[4120:0412/114208:INFO:CONSOLE(30)] ""lastRev is : a4d6a886795765fd90f5d4fef4f7f013915aacde"", source: file:///opt/streamstudio/js/plugins.js (30)
[4120:0412/114208:INFO:CONSOLE(206)] ""Compare rev file..."", source: file:///opt/streamstudio/js/plugins.js (206)
[4120:0412/114209:INFO:CONSOLE(483)] ""Scanning: /usr/bin"", source: file:///opt/streamstudio/js/config.js (483)
[4120:0412/114209:INFO:CONSOLE(483)] ""Scanning: /usr/local/bin"", source: file:///opt/streamstudio/js/config.js (483)
[4120:0412/114209:INFO:CONSOLE(26)] ""freebox available, airplay enabled"", source: file:///opt/streamstudio/js/airmedia.js (26)
[4120:0412/114216:INFO:CONSOLE(13)] ""Checking for updates...."", source: file:///opt/streamstudio/js/update.js (13)
[4120:0412/114216:INFO:CONSOLE(18)] ""online version : 2.0.1, current version : 2.0.1"", source: file:///opt/streamstudio/js/update.js (18)
[4120:0412/114216:INFO:CONSOLE(41)] "Uncaught TypeError: Cannot read property 'split' of null", source: file:///opt/streamstudio/js/airmedia.js (41)
[4120:0412/114216:INFO:CONSOLE(522)] ""stdout: youtube-dl is up-to-date (2015.04.09)\n"", source: file:///opt/streamstudio/js/main.js (522)
[4120:0412/114222:INFO:CONSOLE(71)] ""STARTING DEVICES SEARCH...."", source: /opt/streamstudio/node_modules/upnp-client/lib/client.js (71)
[4120:0412/114236:INFO:CONSOLE(64)] ""chromecast-js: device discovery stopped"", source: /opt/streamstudio/node_modules/chromecast-js/index.js (64)

voili voilou

#14 Re : -1 »  StreamStudio, application streaming youtube/dailymotion/torrents... » Le 12/04/2015, à 20:22

cdjklm
Réponses : 1527

@sylanoa:py toi tu dis cela avec le sourire mad mdr
@reste:tout cassé le SS mais je le redis c'est beau ;-)

#15 Re : -1 »  StreamStudio, application streaming youtube/dailymotion/torrents... » Le 13/04/2015, à 17:26

cdjklm
Réponses : 1527

bein j ai éffectuer la mise à jours aujourd'hui les vidéos de cpasbien de 700mo (basic)lague et je n ai même pas de son,hier j ai eu 2 crash pc suite à streamstudio je t ai mis les terminal,t as rien vu dedans de space?

#16 Re : -1 »  StreamStudio, application streaming youtube/dailymotion/torrents... » Le 13/04/2015, à 17:53

cdjklm
Réponses : 1527

CG:intel gma 945,driver proprio,14.04 32bits,mais fonctionnait très bien samedi,player vlc,pour le crash c est quand ça lague j arrête la lecrture je l ance un autre fichier ça recommence à laguer j arrête le lecteur ,ferme le lecteur mais au bout d un moment tout s arrete et quitte la session.
Edit:escuse j ai 2go de ram je regarde free via vlc aucun lag,il n y a que la HD que je ne peux regarder normalement.

#18 Re : -1 »  StreamStudio, application streaming youtube/dailymotion/torrents... » Le 13/04/2015, à 19:48

cdjklm
Réponses : 1527

désolé suis occupé merci de ton soutiens je test cela et je te redis ptête plus tard,à plus smo et super boulot ;-)

#19 Re : -1 »  StreamStudio, application streaming youtube/dailymotion/torrents... » Le 14/04/2015, à 17:27

cdjklm
Réponses : 1527

ola smo,j ai retelecharger l archive et a l execution j ai

cdjkllm@cdjkllm:~/Téléchargements/streamstudio-64$ ./streamstudio
bash: ./streamstudio: cannot execute binary file: Erreur de format pour exec()
cdjkllm@cdjkllm:~/Téléchargements/streamstudio-64$ 

grave docteur?

Edit :il me semble que SS.me m envoi que la 64 bits alors que bien marqué 32 bits sur le site :-(

#20 Re : -1 »  StreamStudio, application streaming youtube/dailymotion/torrents... » Le 15/04/2015, à 17:13

cdjklm
Réponses : 1527

allo smo,bizarre je viens de réesseyar et SS.me me marque bien 32 bits mais quand je télécharge il m envoi la 64bits :-( ,sinon hier j ai pris la version testing et avait l air de bien fonctionner donc à voir.
Edit:la version proposé est toujours la 2.0.5

#21 Re : -1 »  StreamStudio, application streaming youtube/dailymotion/torrents... » Le 15/04/2015, à 19:43

cdjklm
Réponses : 1527

sur l image du poste 1509 on voit un fichier qui s es créé avec un nom portant de drôle de caractères et écrit (codage non valide) j ai le même fichier qui se crée quand je lance le SS 64bits.

#22 Re : -1 »  StreamStudio, application streaming youtube/dailymotion/torrents... » Le 15/04/2015, à 20:16

cdjklm
Réponses : 1527

bein oui mais bibi c est zip 32 qu il me faut ;-)

#23 Re : -1 »  StreamStudio, application streaming youtube/dailymotion/torrents... » Le 15/04/2015, à 20:19

cdjklm
Réponses : 1527

bein non car le site me dis 32 bits mais au téléchargement me sort du 64 bits,alors que la version testing es bien en 32

#24 Re : -1 »  StreamStudio, application streaming youtube/dailymotion/torrents... » Le 15/04/2015, à 22:35

cdjklm
Réponses : 1527

bein en voila du répendant !!! c est beau comme c est superbe ;-)