Contenu | Rechercher | Menus

Annonce

Ubuntu 16.04 LTS
Commandez vos DVD et clés USB Ubuntu-fr !

Pour en savoir un peu plus sur l'équipe du forum.

Si vous avez des soucis pour rester connecté, déconnectez-vous puis reconnectez-vous depuis ce lien en cochant la case
Me connecter automatiquement lors de mes prochaines visites.

#1 Le 02/07/2017, à 14:40

grandtoubab

|RESOLU]Vos recommendations pour un clip à destination des smartphones

Salut
Pour un petit clip destiné à être lu sur smartphone, voici les réglages que j'utilise dans openshot
HD-25fps-faible-aa-.mp4

Ce qui donne dans ffmpeg

 #0:0(und): Video: mpeg4 (Simple Profile) (mp4v / 0x7634706D), yuv420p, 1920x1080 [SAR 1:1 DAR 16:9], 842 kb/s, 25 fps, 25 tbr, 12800 tbn, 25 t
 #0:1(und): Audio: aac (LC) (mp4a / 0x6134706D), 44100 Hz, stereo, fltp, 98 kb/s (default)

Qu'en dites vous ?

ça se lit parfaitement sur le PC avec vlc, sur le smartphone avec vlc android mais on dirait que ça a du mal à traverser WhatsApp.

Dernière modification par grandtoubab (Le 03/07/2017, à 08:15)


Linux tout seul sur HP Pavilion DV7 et Acer aspire T650
Debian 10 Buster XFCE/Gnome3 sur sda1
Canon MG3650 en wifi

Hors ligne

#2 Le 02/07/2017, à 21:22

J5012

Re : |RESOLU]Vos recommendations pour un clip à destination des smartphones

etant donné que la diagonale d'ecran de la plupart des phones est restreinte, tu peux aussi reduire la resolution de la video ... de l'hd1080 sur une diagonale d'ecran de 19 pouces → ok super ... mais sur du 5 pouces ?

Hors ligne

#3 Le 03/07/2017, à 08:14

grandtoubab

Re : |RESOLU]Vos recommendations pour un clip à destination des smartphones

Salut
ok merci ta réflexion m"a fait mieux comprendre mon problème.
Le 720 est la hauteur de l'image et elle suffit sur mon smartphone
La video en question est un montage de photos qui sont toutes en "Largeur n * 720" dans Gimp , la largeur étant très variable de façon à conserver la proportion acceptable de la photo, en l'occurrence elle varie de  405 à 960. Et c'est pour ça que certaines images s'affichent "petites"

Coté vidéo le meilleur réglage, à mon gout, est MP4 HD 720 25fps faible  avec audio libmp3lame. faible devient "simple profile" pour ffmpeg et avec le 25 fps assure la compatibilité de lecture sur un maximum d'équipements.

 Duration: 00:01:22.13, start: 0.000000, bitrate: 546 kb/s
    Stream #0:0(und): Video: mpeg4 (Simple Profile) (mp4v / 0x7634706D), yuv420p, 1280x720 [SAR 1:1 DAR 16:9], 444 kb/s, 25 fps, 25 tbr, 12800 tbn, 25 tbc (default)
    Stream #0:1(und): Audio: mp3 (mp4a / 0x6134706D), 44100 Hz, stereo, s16p, 96 kb/s (default)

Cette vidéo de 1'22" pèse 5,6 Mega

Sur le smartphone, avec VLC android il faut taper sur l'écran, sélectionner en bas a droite le réglage de l'affichage et taper pour se mettre en "centrer" pour un affichage maximal mais certaines photos sont  rogner , sinon "ajuster au mieux" mais certaines photos restent "petites'.

Dernière modification par grandtoubab (Le 03/07/2017, à 08:21)


Linux tout seul sur HP Pavilion DV7 et Acer aspire T650
Debian 10 Buster XFCE/Gnome3 sur sda1
Canon MG3650 en wifi

Hors ligne