Contenu | Rechercher | Menus

Annonce

L'équipe des administrateurs et modérateurs du forum vous invite à prendre connaissance des nouvelles règles.
En cas de besoin, vous pouvez intervenir dans cette discussion.

Ubuntu 18.04 LTS
Ubuntu-fr propose des clés USB de Ubuntu et toutes ses « saveurs » ainsi qu'un magnifique t-shirt pour cette toute nouvelle version d'Ubuntu !

Si vous avez des soucis pour rester connecté, déconnectez-vous puis reconnectez-vous depuis ce lien en cochant la case
Me connecter automatiquement lors de mes prochaines visites.

À propos de l'équipe du forum.

#1 Le 04/06/2018, à 18:35

oliver2004

Lecture fichiers mp4 saccadée

Bonjour,
Je suis passé par plusieurs machines dans les bureaux, installées kubuntu, des bonnes et des moins bonnes.
Je prends des films en mp4 et quand je les visualisent, toutes les lectures sont saccadées, sur toutes les machines, qui ont ou pas un carte vidéo dédiée.
J'ai fait l'acquisition il y a quelques jours d'un machine HP Probook, i7 avec carte dédiée de 2Go Nvidia Geforce 930mx dont le driver propriétaire est correctement installé. Je pensais que la machine, qui est tout de même une machine sympa mais c'est toujours saccadé, voire ça freeze et le son continue.
C'est normal ?


Bureaux: Ubuntu Serveur Edition 16.04 LTS, Kubuntu sur portables Compaq CQ42, Lubuntu sur portable HP 550, Kubuntu sur DELL Inspiron 14...
Mon laptop: Kubuntu sur DELL
Déjà 10 ans que toutes les machines sont LINUX dans mon entreprise...

Hors ligne

#2 Le 04/06/2018, à 19:47

zephirin

Re : Lecture fichiers mp4 saccadée

Tu lis tes films avec quel logiciel ? VLC est recommandé.


iMac 27" fin2009 Intel2duo 3Ghz 16gb ddr3 ssd2T cg 512 HighSierra - iMac 17" oct2005 PowerG5 Tiger 1,5Gb DDR2 - 2 MacBook Air 13" 2014&2017 i5 8gb ssd120 HighSierra
Barebone 2003 32bit Athlon Xp2600+ 1.9MHz  2gb ddr400 - DF Linux Xfce (Débian8.10) + dd W7 starter
Tour 2009 Asus p5p41d 2009 Intel2,8GHz e6300 2x2gb ddr2 800 W10
Tour 2010 Asus Amd Phénom 4core 955-3,20GHz 8gb ddr3 dd1T cg4gb W10

En ligne

#3 Le 04/06/2018, à 19:50

oliver2004

Re : Lecture fichiers mp4 saccadée

Bonjour,
Je lis avec vlc, gwenview, etc, c'est tout pareil, idem lors de montages avec kdenlive, ce n'est pas fluide.
Personne n'a ce souci ?


Bureaux: Ubuntu Serveur Edition 16.04 LTS, Kubuntu sur portables Compaq CQ42, Lubuntu sur portable HP 550, Kubuntu sur DELL Inspiron 14...
Mon laptop: Kubuntu sur DELL
Déjà 10 ans que toutes les machines sont LINUX dans mon entreprise...

Hors ligne

#4 Le 05/06/2018, à 06:48

zephirin

Re : Lecture fichiers mp4 saccadée

Est-ce que tu as le même résultat avec le driver libre ? ... ce serait la solution.


iMac 27" fin2009 Intel2duo 3Ghz 16gb ddr3 ssd2T cg 512 HighSierra - iMac 17" oct2005 PowerG5 Tiger 1,5Gb DDR2 - 2 MacBook Air 13" 2014&2017 i5 8gb ssd120 HighSierra
Barebone 2003 32bit Athlon Xp2600+ 1.9MHz  2gb ddr400 - DF Linux Xfce (Débian8.10) + dd W7 starter
Tour 2009 Asus p5p41d 2009 Intel2,8GHz e6300 2x2gb ddr2 800 W10
Tour 2010 Asus Amd Phénom 4core 955-3,20GHz 8gb ddr3 dd1T cg4gb W10

En ligne

#5 Le 05/06/2018, à 20:10

oliver2004

Re : Lecture fichiers mp4 saccadée

zephirin a écrit :

Est-ce que tu as le même résultat avec le driver libre ? ... ce serait la solution.

Oui, idem, même résultat.
Et j'ai ça sur plusieurs machine. Sur une DELL, je savais la carte vidéo avec un problème de driver, du coup, ok, ensuite d'autres avec des cartes vidéo intégrées peu puissantes donc du coup, ok, mais là le driver est ok, ça devrait donc plus poser de problème ?
Où c'est un problème chez linux ?


Bureaux: Ubuntu Serveur Edition 16.04 LTS, Kubuntu sur portables Compaq CQ42, Lubuntu sur portable HP 550, Kubuntu sur DELL Inspiron 14...
Mon laptop: Kubuntu sur DELL
Déjà 10 ans que toutes les machines sont LINUX dans mon entreprise...

Hors ligne

#6 Le 07/06/2018, à 00:43

oliver2004

Re : Lecture fichiers mp4 saccadée

Si je ne me trompe pas, le fichiers où ça coince ce sont des images en 4K. Linux ne gérerait-il pas le 4K ?
C'est là où ça peut coincer ?


Bureaux: Ubuntu Serveur Edition 16.04 LTS, Kubuntu sur portables Compaq CQ42, Lubuntu sur portable HP 550, Kubuntu sur DELL Inspiron 14...
Mon laptop: Kubuntu sur DELL
Déjà 10 ans que toutes les machines sont LINUX dans mon entreprise...

Hors ligne

#7 Le 07/06/2018, à 08:58

zephirin

Re : Lecture fichiers mp4 saccadée

Pour afficher la 4K il faut certainement que ta machine puisse le supporter (carte graphique et résolution et temps de réponse de l'écran).


iMac 27" fin2009 Intel2duo 3Ghz 16gb ddr3 ssd2T cg 512 HighSierra - iMac 17" oct2005 PowerG5 Tiger 1,5Gb DDR2 - 2 MacBook Air 13" 2014&2017 i5 8gb ssd120 HighSierra
Barebone 2003 32bit Athlon Xp2600+ 1.9MHz  2gb ddr400 - DF Linux Xfce (Débian8.10) + dd W7 starter
Tour 2009 Asus p5p41d 2009 Intel2,8GHz e6300 2x2gb ddr2 800 W10
Tour 2010 Asus Amd Phénom 4core 955-3,20GHz 8gb ddr3 dd1T cg4gb W10

En ligne

#8 Le 07/06/2018, à 09:38

grandtoubab

Re : Lecture fichiers mp4 saccadée

Salut
Verifier avec ffprobe, utilitaire de ffmpeg,  les caractéristiques de la vidéo pour être certain que c'est bien un pb de 4K
Exemple

ffprobe te3.mp4
Metadata:
    major_brand     : isom
    minor_version   : 512
    compatible_brands: isomiso2avc1mp41
    encoder         : Lavf57.83.100
  Duration: 00:00:08.41, start: 0.033991, bitrate: 4751 kb/s
    Stream #0:0(und): Video: h264 (High) (avc1 / 0x31637661), yuv420p, 1024x576, 4620 kb/s, 25 fps, 25 tbr, 12800 tbn, 50 tbc (default)
    Metadata:
      handler_name    : VideoHandler
    Stream #0:1(und): Audio: ac3 (ac-3 / 0x332D6361), 44100 Hz, stereo, fltp, 128 kb/s (default)
    Metadata:
      handler_name    : SoundHandler
    Side data:
      audio service type: main

et la visionner avec ffplay

ffplay te3.mp4

Dernière modification par grandtoubab (Le 07/06/2018, à 09:40)


Linux tout seul sur HP Pavilion DV7 et Acer Aspire T650
Debian 10 Buster Gnome/Xorg, Gnome/Wayland, Weston/Wayland
Canon MG3650 en wifi
https://bidouilledebian.wordpress.com/

Hors ligne

#9 Le 12/06/2018, à 03:37

oliver2004

Re : Lecture fichiers mp4 saccadée

Bonjour,
mille excuses pour le retard, j'étais pas mal pris par le boulot.

zephirin a écrit :

Pour afficher la 4K il faut certainement que ta machine puisse le supporter (carte graphique et résolution et temps de réponse de l'écran).

En effet, mais je pensais qu'une i7 avec 16Go de RAM et une carte dédiée de 2 Go serait suffisant. N'est ce pas encore assez ?

Sinon, j'ai testé une qui saccade :

olivier@olivier-laptop:/media/olivier/Seagate Expansion Drive/Go Pro Panama$ ffprobe GOPR5674.MP4
ffprobe version 3.4.2-2 Copyright (c) 2007-2018 the FFmpeg developers
  built with gcc 7 (Ubuntu 7.3.0-16ubuntu2)
  configuration: --prefix=/usr --extra-version=2 --toolchain=hardened --libdir=/usr/lib/x86_64-linux-gnu --incdir=/usr/include/x86_64-linux-gnu --enable-gpl --disable-stripping --enable-avresample --enable-avisynth --enable-gnutls --enable-ladspa --enable-libass --enable-libbluray --enable-libbs2b --enable-libcaca --enable-libcdio --enable-libflite --enable-libfontconfig --enable-libfreetype --enable-libfribidi --enable-libgme --enable-libgsm --enable-libmp3lame --enable-libmysofa --enable-libopenjpeg --enable-libopenmpt --enable-libopus --enable-libpulse --enable-librubberband --enable-librsvg --enable-libshine --enable-libsnappy --enable-libsoxr --enable-libspeex --enable-libssh --enable-libtheora --enable-libtwolame --enable-libvorbis --enable-libvpx --enable-libwavpack --enable-libwebp --enable-libx265 --enable-libxml2 --enable-libxvid --enable-libzmq --enable-libzvbi --enable-omx --enable-openal --enable-opengl --enable-sdl2 --enable-libdc1394 --enable-libdrm --enable-libiec61883 --enable-chromaprint --enable-frei0r --enable-libopencv --enable-libx264 --enable-shared
  libavutil      55. 78.100 / 55. 78.100
  libavcodec     57.107.100 / 57.107.100
  libavformat    57. 83.100 / 57. 83.100
  libavdevice    57. 10.100 / 57. 10.100
  libavfilter     6.107.100 /  6.107.100
  libavresample   3.  7.  0 /  3.  7.  0
  libswscale      4.  8.100 /  4.  8.100
  libswresample   2.  9.100 /  2.  9.100
  libpostproc    54.  7.100 / 54.  7.100
Input #0, mov,mp4,m4a,3gp,3g2,mj2, from 'GOPR5674.MP4':
  Metadata:
    major_brand     : mp41
    minor_version   : 538120216
    compatible_brands: mp41
    creation_time   : 2015-01-07T10:54:36.000000Z
    firmware        : HD4.02.03.00.00
  Duration: 00:01:38.54, start: 0.000000, bitrate: 60060 kb/s
    Stream #0:0(eng): Video: h264 (High) (avc1 / 0x31637661), yuvj420p(pc, bt709), 3840x2160 [SAR 1:1 DAR 16:9], 59916 kb/s, 29.97 fps, 29.97 tbr, 90k tbn, 59.94 tbc (default)
    Metadata:
      creation_time   : 2015-01-07T10:54:36.000000Z
      handler_name    :         GoPro AVC
      encoder         : GoPro AVC encoder
    Stream #0:1(eng): Audio: aac (LC) (mp4a / 0x6134706D), 48000 Hz, stereo, fltp, 128 kb/s (default)
    Metadata:
      creation_time   : 2015-01-07T10:54:36.000000Z
      handler_name    :         GoPro AAC
    Stream #0:2(eng): Data: none (tmcd / 0x64636D74) (default)
    Metadata:
      creation_time   : 2015-01-07T10:54:36.000000Z
      handler_name    :         GoPro TCD
      timecode        : 10:54:07:06
    Stream #0:3(eng): Data: none (fdsc / 0x63736466), 9 kb/s (default)
    Metadata:
      creation_time   : 2015-01-07T10:54:36.000000Z
      handler_name    :         GoPro SOS
Unsupported codec with id 0 for input stream 2
Unsupported codec with id 0 for input stream 3

Je suppose que c'est ça qui va pas :

Unsupported codec with id 0 for input stream 2
Unsupported codec with id 0 for input stream 3

??

J'en ai testé une autre qui saccade également mais qui ne présente pas les même codecs non supportés :

olivier@olivier-laptop:/media/olivier/Seagate Expansion Drive/Masters$ ffprobe remastered-bolivie-2018.mp4
ffprobe version 3.4.2-2 Copyright (c) 2007-2018 the FFmpeg developers
  built with gcc 7 (Ubuntu 7.3.0-16ubuntu2)
  configuration: --prefix=/usr --extra-version=2 --toolchain=hardened --libdir=/usr/lib/x86_64-linux-gnu --incdir=/usr/include/x86_64-linux-gnu --enable-gpl --disable-stripping --enable-avresample --enable-avisynth --enable-gnutls --enable-ladspa --enable-libass --enable-libbluray --enable-libbs2b --enable-libcaca --enable-libcdio --enable-libflite --enable-libfontconfig --enable-libfreetype --enable-libfribidi --enable-libgme --enable-libgsm --enable-libmp3lame --enable-libmysofa --enable-libopenjpeg --enable-libopenmpt --enable-libopus --enable-libpulse --enable-librubberband --enable-librsvg --enable-libshine --enable-libsnappy --enable-libsoxr --enable-libspeex --enable-libssh --enable-libtheora --enable-libtwolame --enable-libvorbis --enable-libvpx --enable-libwavpack --enable-libwebp --enable-libx265 --enable-libxml2 --enable-libxvid --enable-libzmq --enable-libzvbi --enable-omx --enable-openal --enable-opengl --enable-sdl2 --enable-libdc1394 --enable-libdrm --enable-libiec61883 --enable-chromaprint --enable-frei0r --enable-libopencv --enable-libx264 --enable-shared
  libavutil      55. 78.100 / 55. 78.100
  libavcodec     57.107.100 / 57.107.100
  libavformat    57. 83.100 / 57. 83.100
  libavdevice    57. 10.100 / 57. 10.100
  libavfilter     6.107.100 /  6.107.100
  libavresample   3.  7.  0 /  3.  7.  0
  libswscale      4.  8.100 /  4.  8.100
  libswresample   2.  9.100 /  2.  9.100
  libpostproc    54.  7.100 / 54.  7.100
Input #0, mov,mp4,m4a,3gp,3g2,mj2, from 'remastered-bolivie-2018.mp4':
  Metadata:
    major_brand     : isom
    minor_version   : 512
    compatible_brands: isomiso2mp41
    encoder         : Lavf57.71.100
  Duration: 00:07:17.89, start: 0.000000, bitrate: 60139 kb/s
    Stream #0:0(und): Video: hevc (Main) (hev1 / 0x31766568), yuv420p(tv, bt709/unknown/bt709, progressive), 3840x2160 [SAR 1:1 DAR 16:9], 59935 kb/s, 30 fps, 30 tbr, 15360 tbn, 30 tbc (default)
    Metadata:
      handler_name    : VideoHandler
    Stream #0:1(und): Audio: aac (LC) (mp4a / 0x6134706D), 48000 Hz, stereo, fltp, 198 kb/s (default)
    Metadata:
      handler_name    : SoundHandler

Celle-ci c'est un montage que j'ai fait, ça passe et ça ne passe pas...

Dernière modification par oliver2004 (Le 12/06/2018, à 03:46)


Bureaux: Ubuntu Serveur Edition 16.04 LTS, Kubuntu sur portables Compaq CQ42, Lubuntu sur portable HP 550, Kubuntu sur DELL Inspiron 14...
Mon laptop: Kubuntu sur DELL
Déjà 10 ans que toutes les machines sont LINUX dans mon entreprise...

Hors ligne

#10 Le 12/06/2018, à 11:37

freechelmi

Re : Lecture fichiers mp4 saccadée

C'est du H265 , il faut que la carte le supporte en hardware .

Tu peux verifier avec vainfo et vdpauinfo

Hors ligne

#11 Le 12/06/2018, à 13:50

grandtoubab

Re : Lecture fichiers mp4 saccadée

Stream #0:0(eng): Video: h264 (High) (avc1 / 0x31637661), yuvj420p(pc, bt709), 3840x2160 [SAR 1:1 DAR 16:9], 59916 kb/s, 29.97 fps, 29.97 tbr, 90k tbn, 59.94 tbc (default)
    Metadata:
      creation_time   : 2015-01-07T10:54:36.000000Z
      handler_name    :         GoPro AVC

essai en ré-encodant

/media/olivier/Seagate Expansion Drive/Go Pro Panama$ ffmpeg -i GOPR5674.MP4 -profile:v baseline -level 3.0 essai.mp4

Linux tout seul sur HP Pavilion DV7 et Acer Aspire T650
Debian 10 Buster Gnome/Xorg, Gnome/Wayland, Weston/Wayland
Canon MG3650 en wifi
https://bidouilledebian.wordpress.com/

Hors ligne

#12 Le 12/06/2018, à 19:08

oliver2004

Re : Lecture fichiers mp4 saccadée

freechelmi a écrit :

C'est du H265 , il faut que la carte le supporte en hardware .

Tu peux verifier avec vainfo et vdpauinfo

Intéressant, voici ce que retourne la commande :

olivier@olivier-laptop:~$ vainfo
libva info: VA-API version 1.1.0
libva info: va_getDriverName() returns 0
libva info: Trying to open /usr/lib/x86_64-linux-gnu/dri/i965_drv_video.so
libva info: Found init function __vaDriverInit_1_1
libva info: va_openDriver() returns 0
vainfo: VA-API version: 1.1 (libva 2.1.0)
vainfo: Driver version: Intel i965 driver for Intel(R) Kaby Lake - 2.1.0
vainfo: Supported profile and entrypoints
      VAProfileMPEG2Simple            : VAEntrypointVLD
      VAProfileMPEG2Simple            : VAEntrypointEncSlice
      VAProfileMPEG2Main              : VAEntrypointVLD
      VAProfileMPEG2Main              : VAEntrypointEncSlice
      VAProfileH264ConstrainedBaseline: VAEntrypointVLD
      VAProfileH264ConstrainedBaseline: VAEntrypointEncSlice
      VAProfileH264ConstrainedBaseline: VAEntrypointEncSliceLP
      VAProfileH264Main               : VAEntrypointVLD
      VAProfileH264Main               : VAEntrypointEncSlice
      VAProfileH264Main               : VAEntrypointEncSliceLP
      VAProfileH264High               : VAEntrypointVLD
      VAProfileH264High               : VAEntrypointEncSlice
      VAProfileH264High               : VAEntrypointEncSliceLP
      VAProfileH264MultiviewHigh      : VAEntrypointVLD
      VAProfileH264MultiviewHigh      : VAEntrypointEncSlice
      VAProfileH264StereoHigh         : VAEntrypointVLD
      VAProfileH264StereoHigh         : VAEntrypointEncSlice
      VAProfileVC1Simple              : VAEntrypointVLD
      VAProfileVC1Main                : VAEntrypointVLD
      VAProfileVC1Advanced            : VAEntrypointVLD
      VAProfileNone                   : VAEntrypointVideoProc
      VAProfileJPEGBaseline           : VAEntrypointVLD
      VAProfileJPEGBaseline           : VAEntrypointEncPicture
      VAProfileVP8Version0_3          : VAEntrypointVLD
      VAProfileVP8Version0_3          : VAEntrypointEncSlice
      VAProfileHEVCMain               : VAEntrypointVLD
      VAProfileHEVCMain               : VAEntrypointEncSlice
      VAProfileHEVCMain10             : VAEntrypointVLD
      VAProfileHEVCMain10             : VAEntrypointEncSlice
      VAProfileVP9Profile0            : VAEntrypointVLD
      VAProfileVP9Profile0            : VAEntrypointEncSlice
      VAProfileVP9Profile2            : VAEntrypointVLD
olivier@olivier-laptop:~$

Je ne vois pas de H265, que du H264, ce serait ça le problème ?


Bureaux: Ubuntu Serveur Edition 16.04 LTS, Kubuntu sur portables Compaq CQ42, Lubuntu sur portable HP 550, Kubuntu sur DELL Inspiron 14...
Mon laptop: Kubuntu sur DELL
Déjà 10 ans que toutes les machines sont LINUX dans mon entreprise...

Hors ligne

#13 Le 13/06/2018, à 10:06

freechelmi

Re : Lecture fichiers mp4 saccadée

Tu l'as bien sur Kabylake , je le décode chez moi :

 VAProfileHEVCMain               : VAEntrypointVLD
 VAProfileHEVCMain               : VAEntrypointEncSlice
 VAProfileHEVCMain10             : VAEntrypointVLD
 VAProfileHEVCMain10             : VAEntrypointEncSlice

Et meme si tu es en 4K H265 ça devrait marcher, partage ton fichier ou lance vlc avec -vvv pour avoir plus d'info

Hors ligne