Contenu | Rechercher | Menus

Annonce

Si vous rencontrez des soucis à rester connecté sur le forum (ou si vous avez perdu votre mot de passe) déconnectez-vous et reconnectez-vous depuis cette page, en cochant la case "Me connecter automatiquement lors de mes prochaines visites".

#1 Le 30/11/2009, à 23:39

KRS

Rip de DVD : HandBrake 0.9.4 est sortit

Handbrake, le merveilleux logiciel de Rip DVD simple, puissant et rapide vient de sortir dans sa dernière version.

Pour rappel il permet de ripper vos DVD en une seule opération, avec une interface graphique convivialeet intuitive et des réglages par défaut très optimisés.

- Basé sur le Codec Open Source X264,l'encodeur Mpeg4/H264 le plus rapide et qui donne le meilleur rapport Qualité/taille.
- supporte les multiples pistes audio
- supporte les sous-titre optionnels
- prévisualisation "en direct" de l'encodage
- système de file d'attente.
- Permet de convertir d'autres fichiers vidéos.

Franchement, même les acharnés de la ligne de commande et de mencoder/ffmpeg devraient s'y mettre tellement il y a d'avantages.

http://handbrake.fr

Hors ligne

#2 Le 01/12/2009, à 00:28

compte supprimé

Re : Rip de DVD : HandBrake 0.9.4 est sortit

abonnement

#3 Le 01/12/2009, à 08:45

Brunod

Re : Rip de DVD : HandBrake 0.9.4 est sortit

+1:)


Windows est un système d'exploitation de l'homme par l'ordinateur.
Linux, c'est le contraire ... --> état de la conversion : 34 pc linux

En ligne

#4 Le 02/12/2009, à 22:37

Maz99

Re : Rip de DVD : HandBrake 0.9.4 est sortit

Bonjour, je suis sous Jaunty, je fais :

sudo apt-get install Handbrake-0.9.4-Ubuntu_GUI_i686.deb

Mais j'obtiens :

E: Impossible de trouver le paquet Handbrake-0.9.4-Ubuntu_GUI_i686.deb

J'utilise déjà la 0.9.3 et malgré quelques bugs avec la "show queue", j'en suis satisfait.
Cependant je souhaiterais avoir de meilleures performances.

Une idée?

Hors ligne

#5 Le 02/12/2009, à 23:00

RedLemon

Re : Rip de DVD : HandBrake 0.9.4 est sortit

double clix sur  Handbrake-0.9.4-Ubuntu_GUI_i686.deb ...


« Je suis probablement l'inventeur de la combinaison Ctrl-Alt-Suppr, mais c'est Bill Gates qui l'a rendue célèbre ».
« I may have invented Control-Alt-Delete, but Bill Gates made it famous »
David Bradley
Mes wikis : http://doc.ubuntu-fr.org/utilisateurs/redlemon

Hors ligne

#6 Le 02/12/2009, à 23:10

Maz99

Re : Rip de DVD : HandBrake 0.9.4 est sortit

RedLemon a écrit :

double clix sur  Handbrake-0.9.4-Ubuntu_GUI_i686.deb ...

Bah par défaut il le lançait avec Kpackage et ne m'indiquait pas l'erreur. Par GDebi il m'indique qu'il me manque la libsoup 2.4-1 et qu'il me faut la version 2.27.92 au minimum hors dans jaunty ce n'est pas le cas.

Bien entendu je pourrais la mettre à jour par un ppa mais quid de mes autres applications dépendantes?

J'ai trouvé aussi ceci : http://ubuntuforums.org/showthread.php?p=8416508

Mais malgré l'intégration dans la liste de mes dépôts (ainsi que la clé) il ne me propose pas la mise à jour.

Dernière modification par Maz99 (Le 02/12/2009, à 23:12)

Hors ligne

#7 Le 03/12/2009, à 21:42

Maz99

Re : Rip de DVD : HandBrake 0.9.4 est sortit

Petit Up, il semblerait qu'il faille que j'attende de migrer vers Lucid en avril. roll

Hors ligne

#8 Le 03/12/2009, à 23:48

yostral

Re : Rip de DVD : HandBrake 0.9.4 est sortit

Le .deb fournit sur le site officiel est uniquement pour Karmic (9.10).

Sur le PPA indiqué sur ton lien, le .deb pour Jaunty ne fonctionne pas ?


Quand tout le reste a échoué, lisez le mode d'emploi.

Hors ligne

#9 Le 04/12/2009, à 15:46

Maz99

Re : Rip de DVD : HandBrake 0.9.4 est sortit

Merci beaucoup yostral! J'ai du faire une mauvaise manipulation, ici plus de souci! Comme quoi il faut parfois un peu persévérer. C'est toujours un plaisir de se faire aider par la communauté smile

Il ne reste plus qu'à le tester, espérons qu'il bug moins et que les performances soient meilleures, l'interface est un peu plus belle en tout cas.

Dernière modification par Maz99 (Le 04/12/2009, à 15:47)

Hors ligne

#10 Le 04/12/2009, à 19:16

KRS

Re : Rip de DVD : HandBrake 0.9.4 est sortit

Comme je suis un maniac de la qualité (on n'encode ses DVD qu'une fois), j'ai modifié les paramètres X264 selon les recommandations de Sharkteeth et Dark Shikari, 2 gourous du X264 sur le forum Doom9.net.

Les option ne sont pas toutes au max, mais plus ne ferait qu'allonger le temps d'encodage sans pour autant offrir des améliorations perceptibles. (ou alors c'est un effet placebo wink  )

Voici donc un profil que vous pouvez importer dans Handbrake (bouton options en bas à droite) : HQ profile
Destiné pour un archivage de films et pour lecture sur un ordinateur (pas de PS3, x-box ou autre lecteur de salon sous la main pour tester si ça passe.)

Pour plus de précision sur ma méthode :

Dans les pictures settings, j'utilise la résolution anamorphique originale du DVD. je crop si il y a besoin, désentrelace si besoin. Pas de filtres à moins que le DVD original soit vraiment dégeulasse.

Je choisis le format MKV car il me permet d'y intégrer des sous-titres srt par la suite ainsi qu'une vignette de la jaquette qui sera affichée par Nautilus.

je règle en mode Constant Quality sur RF 21.  Mes fichiers auront des tailles différentes, mais la qualité de l'image sera toujours la même. un RF de 21 peut paraitre excessf, mais au moins je suis sûr de ne pas voir la différence avec le DVD original (ou alors en comparant des images fixes)

Audio, je laisse AC3 ou DTS pass-thru pour les films qui ont une bande son excellente. Pour les films originellement en stereo ou mono ou si vous n'avez pas de système 5.1 j'utilise du Vorbis stereo (ou mono suivant le film) en 48kHz bitrate 128.

et je lance la moulinette et ça dure une nuit environ. (variable suivant votre CPU)

Les avis divergent souvent pour les options, je donne mon avis comme base pour ceux qui ne connaitraient pas grand chose. Après vous faites comme ça vous plait smile

Dernière modification par KRS (Le 04/12/2009, à 19:17)

Hors ligne

#11 Le 04/12/2009, à 21:48

Maz99

Re : Rip de DVD : HandBrake 0.9.4 est sortit

Merci , KRS, je garde le post dans mes favoris pour par exemple archiver mes vidéos préférées. Personnellement j'utilise handbrake pour avoir du H264 sur mon ipod touch (le cowon s9 ne le gère pas : dommage).

A part le profil par défaut Ipod Touch, penses-tu qu'il y ait moyen de l'optimiser pour gagner en taille/temps de codage (j'ai un monocore) et ce sans perdre la qualité? Merci.

EDIT : sur un animé en profil ipod touch (480*272 AVC1/H264 framerate idem) j'arrive à 80mo pour 24 minutes! au lieu de gros  minimum 125mo avec le même profil dans la version précédente! (0.9.3) De même je gagne en moyenne de 3 à 5 minutes d'encodage par animé (20-25 minutes au lieu de 25-30 en moyenne bien entendu) ça vallait la peine de faire la mise à jour smile

Dernière modification par Maz99 (Le 04/12/2009, à 22:44)

Hors ligne

#12 Le 05/12/2009, à 00:13

KRS

Re : Rip de DVD : HandBrake 0.9.4 est sortit

Le gain de vitesse vient des otimisations de x264.
Pour la taille, ça vient probablement de l'ajustement de l'échelle de qualité. Maintenant en plus du pourcentage (qui n'est pas très parlant à mon avis) elle indique la valeur du Quantizer (RF). Ce n'est pas plus intuitif au premier abords, mais c'est l'échelle de qualité qui est utilisée par x264.

Pour gagner en qualité (abaisser la taille du fichier), tu peux augmenter le Subpixel ME à 7 ou plus.  cocher no fast-Pskip. Activer Cabac serait une bonne idée, mais je ne sais pas si l'iPod le supporte, à tester.

Pour gagner en vitesse, Tu peux baisser le nombre de Reference Frames, Motion estimation sur Hexagon, et baisser Motion ME. Ce sont les paramètres qui influencent le plus la vitesse. Pour l'impact sur la qualité je te laisse voir ce que ça donne, mais le gain en vitesse est habituellement plus grand que la perte en qualité.

Hors ligne

#13 Le 05/12/2009, à 00:44

Maz99

Re : Rip de DVD : HandBrake 0.9.4 est sortit

Grand merci, je teste tout cela dans la semaine qui vient, ça risque de me prendre du temps, je reviens faire un rapport. Avec mes 8go de taille disque et mon processeur monocore j'ai bien besoin de ces optimisations ;-)

Hors ligne

#14 Le 16/12/2009, à 21:46

Maz99

Re : Rip de DVD : HandBrake 0.9.4 est sortit

Bon, force est de constater que je ne sais pas gagner beaucoup de temps là dessus, la plupart des options font qu'Itunes ne prend pas les vidéos générées.
Le plus gros paramètre et le plus simple semble le RF, par défaut sur 21, je le mets sur 20 et gagne un peu en place et durée de conversion sans perdre en qualité (pas vraiment visible contrairement au mpeg4 standard supporté) Le logiciel en lui-même accélère bien la conversion et bug beaucoup moins. La mise à jour vaut franchement la peine. Voilà pour le rapport wink

Hors ligne

#15 Le 25/05/2010, à 11:31

rightstufF

Re : Rip de DVD : HandBrake 0.9.4 est sortit

Salut!
Pour ma part j'ai installé handbrake histoire de compresser de la video destinée a mon iphone. Le porb c'est que handbrake refuse systématiquement tous fichier. Linterface de handbrake me renvoit cela:

[11:29:40] gtkgui: HandBrake rev2965 (2010050299) - Linux x86_64 - http://handbrake.fr
[11:29:40] hb_init: checking cpu count
[11:29:40] hb_init: starting libhb thread
[11:29:40] hb_init: checking cpu count
[11:29:40] hb_init: starting libhb thread
libdvdread: Encrypted DVD support unavailable.
libdvdread: Encrypted DVD support unavailable.
[11:29:47] hb_scan: path=/media/My Passport/_Video/Ratatouille HD 1080p/Ratatouille HD 1080p MP4 by Demonoid.com.mp4, title_index=0
[11:29:47] scan: trying to open with libdvdread
libdvdnav: Using dvdnav version 4.1.3
libdvdread: Encrypted DVD support unavailable.
libdvdnav:DVDOpenFileUDF:UDFFindFile /VIDEO_TS/VIDEO_TS.IFO failed
libdvdnav:DVDOpenFileUDF:UDFFindFile /VIDEO_TS/VIDEO_TS.BUP failed
libdvdread: Can't open file VIDEO_TS.IFO.
libdvdnav: vm: failed to read VIDEO_TS.IFO
[11:29:47] dvd: not a dvd - trying as a stream/file instead
Input #0, mov,mp4,m4a,3gp,3g2,mj2, from '/media/My Passport/_Video/Ratatouille HD 1080p/Ratatouille HD 1080p MP4 by Demonoid.com.mp4':
  Duration: 01:50:33.34, start: 0.000000, bitrate: 3243 kb/s
    Stream #0.0(und): Video: h264, yuv420p, 1920x800 [PAR 1:1 DAR 12:5], 23,98 tbr, 23,98 tbn, 47,95 tbc
    Stream #0.1(und): Audio: aac, 48000 Hz, stereo, s16
[11:29:48] scan: decoding previews for title 1
[11:29:48] scan: 10 previews, 1920x800, 23,976 fps, autocrop = 0/0/0/0, aspect 2,40:1, PAR 1:1
[11:29:48] scan: title (0) job->width:1920, job->height:800
[11:29:48] libhb: scan thread found 1 valid title(s)
libdvdread: Encrypted DVD support unavailable.

Je ne pige pas vraiment ou se situe le problème..

Si qq un a une idée...


Connaitre ses limites c'est savoir jusqu'ou on peut aller trop loin...

Hors ligne

#16 Le 25/05/2010, à 16:35

KRS

Re : Rip de DVD : HandBrake 0.9.4 est sortit

les messages d'erreur font référence au support du décryptages des DVD manquant. En effet dans le cadre d'un fichier déjà encodé, ça devrait passer.

Peut-tu lire ce film sans soucis? 
Tu peux déjà installer de quoi décrypter les DVD (voir la doc du site) ça fera tout ça de messages d'erreurs en moins dans la console.

Hors ligne

#17 Le 25/05/2010, à 19:06

rightstufF

Re : Rip de DVD : HandBrake 0.9.4 est sortit

En fait ce ne sont aps des dvd mais des fichiers (j'en ai essaye de plusieurs type). C'est pour cela que je ne comprend pas le sens du message.


Connaitre ses limites c'est savoir jusqu'ou on peut aller trop loin...

Hors ligne

#18 Le 25/05/2010, à 19:14

Maz99

Re : Rip de DVD : HandBrake 0.9.4 est sortit

As-tu installé les codecs requis? (Attention ils sont propriétaires)

Ce sont les paquets Gstreamer : http://doc.ubuntu-fr.org/formats_non-libres?s=gstreamer

Hors ligne

#19 Le 26/05/2010, à 08:08

rightstufF

Re : Rip de DVD : HandBrake 0.9.4 est sortit

maintenant c'est fait... cependant ca ne marche pas mieux  hmm

07:59:34] gtkgui: HandBrake rev2965 (2010050299) - Linux x86_64 - http://handbrake.fr
[07:59:34] hb_init: checking cpu count
[07:59:34] hb_init: starting libhb thread
[07:59:34] hb_init: checking cpu count
[07:59:34] hb_init: starting libhb thread
libdvdread: Using libdvdcss version 1.2.10 for DVD access
[07:59:46] hb_scan: path=/home/pascald/Vidéos/Gag/Garage gaudin 1, title_index=0
[07:59:46] scan: trying to open with libdvdread
libdvdnav: Using dvdnav version 4.1.3
libdvdread: Using libdvdcss version 1.2.10 for DVD access
libdvdnav:DVDOpenFileUDF:UDFFindFile /VIDEO_TS/VIDEO_TS.IFO failed
libdvdnav:DVDOpenFileUDF:UDFFindFile /VIDEO_TS/VIDEO_TS.BUP failed
libdvdread: Can't open file VIDEO_TS.IFO.
libdvdnav: vm: failed to read VIDEO_TS.IFO
[07:59:46] dvd: not a dvd - trying as a stream/file instead
[flv @ 0x3d6d850]skipping flv packet: type 18, size 294, flags 0
Input #0, flv, from '/home/pascald/Vidéos/Gag/Garage gaudin 1':
  Duration: 00:02:55.31, start: 0.000000, bitrate: N/A
    Stream #0.0: Video: h264, yuv420p, 300x240 [PAR 1:1 DAR 5:4], 25 tbr, 1k tbn, 2k tbc
    Stream #0.1: Audio: aac, 22050 Hz, stereo, s16
[07:59:46] scan: decoding previews for title 1
[07:59:46] scan: 10 previews, 300x240, 25,000 fps, autocrop = 0/0/4/6, aspect 1,25:1, PAR 1:1
[07:59:46] scan: title (0) job->width:288, job->height:240
[07:59:46] libhb: scan thread found 1 valid title(s)
libdvdread: Using libdvdcss version 1.2.10 for DVD access

copie de ce que me renvoit la console de handbrake.
je ne comprend pas... roll

Sur le "papier" tout a l'air simple mais la ca coince, ca devient pénible


Connaitre ses limites c'est savoir jusqu'ou on peut aller trop loin...

Hors ligne

#20 Le 26/05/2010, à 20:11

Maz99

Re : Rip de DVD : HandBrake 0.9.4 est sortit

Tu le lances bien par la commande ghb ?

libdvdcss est-elle installée?

Handbrake plante quand tu fais un ajout ou quand tu tentes d'encoder?

Hors ligne

#21 Le 26/05/2010, à 20:58

rightstufF

Re : Rip de DVD : HandBrake 0.9.4 est sortit

Tu le lances bien par la commande ghb ?

Connais pas... neutral

libdvdcss est-elle installée?*

Il semble que oui... roll

Handbrake plante quand tu fais un ajout ou quand tu tentes d'encoder?

En fait il accepte le fichier mais impossible de faire ni preview, ni encondage, tyout est grisé... mad

je reste perplex


Connaitre ses limites c'est savoir jusqu'ou on peut aller trop loin...

Hors ligne

#22 Le 26/05/2010, à 22:31

KRS

Re : Rip de DVD : HandBrake 0.9.4 est sortit

Ok, je vois mieux, je pensais que tu lançait Handbrake depuis la console.

Vas dans Application>Accesoires>Terminal

la tu tape

ghb

Hanbrake s'ouvre, tu ouvre ta vidéo en question et tu regarde si qqch s'affiche dans le terminal, si oui colle nous ce qu'il y a.

Quelle version de Ubuntu as-tu et quelle version de Handbrake utilise-tu? (depuis quelle source l'as-tu installé)

Je ne sais pas si Handbrake s'appuie sur Gstreamer ou ffmpeg pour le décodage, arrive-tu a lire tes vidéos avec Totem? (qui utilise gstreamer si tu n'as pas installé Totem-xine)

Hors ligne

#23 Le 27/05/2010, à 07:45

rightstufF

Re : Rip de DVD : HandBrake 0.9.4 est sortit

arf!! hmm

le terminal renvoit:

pascald@pascald-asus:~$ ghb

** (ghb:2479): WARNING **: returning null (AudioTrack)

et la console du handbrake (apres chargement du "garage gaudin...)

[07:17:36] gtkgui: HandBrake rev2965 (2010050299) - Linux x86_64 - http://handbrake.fr
[07:17:37] hb_init: checking cpu count
[07:17:37] hb_init: starting libhb thread
[07:17:37] hb_init: checking cpu count
[07:17:37] hb_init: starting libhb thread
libdvdread: Using libdvdcss version 1.2.10 for DVD access
[07:17:43] hb_scan: path=/home/pascald/Vidéos/Gag/Garage gaudin 1, title_index=0
[07:17:43] scan: trying to open with libdvdread
libdvdnav: Using dvdnav version 4.1.3
libdvdread: Using libdvdcss version 1.2.10 for DVD access
libdvdnav:DVDOpenFileUDF:UDFFindFile /VIDEO_TS/VIDEO_TS.IFO failed
libdvdnav:DVDOpenFileUDF:UDFFindFile /VIDEO_TS/VIDEO_TS.BUP failed
libdvdread: Can't open file VIDEO_TS.IFO.
libdvdnav: vm: failed to read VIDEO_TS.IFO
[07:17:43] dvd: not a dvd - trying as a stream/file instead
[flv @ 0x39fd330]skipping flv packet: type 18, size 294, flags 0
Input #0, flv, from '/home/pascald/Vidéos/Gag/Garage gaudin 1':
  Duration: 00:02:55.31, start: 0.000000, bitrate: N/A
    Stream #0.0: Video: h264, yuv420p, 300x240 [PAR 1:1 DAR 5:4], 25 tbr, 1k tbn, 2k tbc
    Stream #0.1: Audio: aac, 22050 Hz, stereo, s16
[07:17:44] scan: decoding previews for title 1
[07:17:44] scan: 10 previews, 300x240, 25,000 fps, autocrop = 0/0/4/6, aspect 1,25:1, PAR 1:1
[07:17:44] scan: title (0) job->width:288, job->height:240
[07:17:44] libhb: scan thread found 1 valid title(s)
libdvdread: Using libdvdcss version 1.2.10 for DVD access

Pour info, totem utilise gstreamer et il lit tres bien le "garage gaudin" big_smile

merci de ton aide. A defaut j'ai installe la version Windows sous virtualbox, pas brillant comme solution.


Connaitre ses limites c'est savoir jusqu'ou on peut aller trop loin...

Hors ligne

#24 Le 27/05/2010, à 10:05

KRS

Re : Rip de DVD : HandBrake 0.9.4 est sortit

Je n'ai jamais eu l'occasion d'essayer la version 64bit de Handbrake. (mais à priori ce n'est pas une raison pour qu'elle ne fonctionne pas.

Quoi qu'il en soit, j'ai exactement la même sortie que toi quand j'ouvre une vidéo, sauf que j'ai la preview et tout.  Je n'ai pas le message du terminal par contre, mais ça n'en dit pas grand chose.
Je ne saurais pas beaucoup plus t'aider qu'en te dirigeant vers le forum officiel de handbrake pour trouver plus d'aide.

Chez moi HB ouvre sans problème mes mkv, flv et autres.

(pour info la version windows est moins fignolée que pour linux, tu l'aura remarqué)

Autre possibilité pour la conversion: Avidemux, même si il faut touiller à la main pour avoir des réglages de codec corrects.

PS: essaye toujours de désinstaller complètement et de réinstaller HB, on ne sait jamais.

Dernière modification par KRS (Le 27/05/2010, à 10:08)

Hors ligne

#25 Le 27/05/2010, à 11:10

rightstufF

Re : Rip de DVD : HandBrake 0.9.4 est sortit

(pour info la version windows est moins fignolée que pour linux, tu l'aura remarqué) big_smile hélas celle-ci fonctionne...

PS: essaye toujours de désinstaller complètement et de réinstaller HB, on ne sait jamais.
J'y pensais justement, par dépit, on se sait jamais.

Merci pour tout.


Connaitre ses limites c'est savoir jusqu'ou on peut aller trop loin...

Hors ligne

Haut de page ↑