Contenu | Rechercher | Menus

Annonce

Si vous rencontrez des soucis à rester connecté sur le forum (ou si vous avez perdu votre mot de passe) déconnectez-vous et reconnectez-vous depuis cette page, en cochant la case "Me connecter automatiquement lors de mes prochaines visites".

#26 Le 14/01/2013, à 18:03

golgot200

Re : essai encodage vidéo HD .m2t 1920x1080 avec ffmpeg

Un petite ligne pour calculer le temps en milliseconde un film de 1h:23mn:53s.235 milliseconde
Merci à xabilon wink
echo 1:23:53.235 | awk '{ split($1, A, ":"); print 3600000*A[1] + 60000*A[2] + 1000*A[3]}'

Nanoseconde
echo 1:23:53.235 | awk '{ split($1, A, ":"); print 3600000000000*A[1] + 60000000000*A[2] + 1000000000*A[3]}'




EDIT:

Tragtor fonctionne chez moi.
Avec le PPA  jon severrinson (ffmpeg)

1358188855.png

Dernière modification par golgot200 (Le 14/01/2013, à 23:05)


"L’ultime question … L’intelligence a besoin de la Bêtise pour s’affirmer, La Beauté a besoin de la Laideur pour resplendir, Le Courage naît dans la Peur, Les Forts impressionnent au milieu des Faibles, Mais au final,…Qui a donc besoin d’autant de connards ?"

Hors ligne

#27 Le 14/01/2013, à 22:33

bishop

Re : essai encodage vidéo HD .m2t 1920x1080 avec ffmpeg

Merci golgot200 !
Je viens de télécharger tsMuxeR, pas la version tsMuxeR_shared_1.10.6.tar.gz proposée dans la doc ubuntu-fr qui nécessite (comme tu le souligne dans un précédent poste) d'installer des librairies 32 bits sur une architecture 64 bits,
mais la version tsMuxeR_1.10.6.tar.gz proposée sur http://www.videohelp.com/tools/tsMuxeR à la ligne "Download Tsmuxer for Linux here" qui ne nécessite pas l'installation de lib32. smile


golgot200 écrit :
EDIT:

Tragtor fonctionne chez moi.
Avec le PPA  jon severrinson

1358188855.png

C'est bizarre ! J'ai installé FFmpeg à partir de ce PPA et traGtor n'a pas fonctionné.

Dernière modification par bishop (Le 14/01/2013, à 22:42)


Mon blog L'effet Papy Ion - | - Éditeur BBCode - Ma Bécane
Ma Bécane alimentée par Trusty 14.04 + additif VirtualBox (Elementary OS Luna)  | Portable LDLC Aurore : Precise 12.04

Hors ligne

#28 Le 14/01/2013, à 22:42

golgot200

Re : essai encodage vidéo HD .m2t 1920x1080 avec ffmpeg

Bonsoir Bishop

Et ben moi, j'y comprend plus rien. C'est bien ici que je l'ai chargée et elle n'a jamais voulu partir sans. (Transparent par terminal)

il y a un ppa pour traGtor ?

EDIT:
Pour visionner mon mkv 1920 x 1080, il y a eu un autre problème. xv passait  par mplayer2 mais pas en vdpau
J'ai du passer par un ppa pour avoir smplayer2 et mplayer2 dernière version.
+ ppa ffmpeg . Tout tourne bien apparement

Dernière modification par golgot200 (Le 14/01/2013, à 22:46)


"L’ultime question … L’intelligence a besoin de la Bêtise pour s’affirmer, La Beauté a besoin de la Laideur pour resplendir, Le Courage naît dans la Peur, Les Forts impressionnent au milieu des Faibles, Mais au final,…Qui a donc besoin d’autant de connards ?"

Hors ligne

#29 Le 14/01/2013, à 22:48

bishop

Re : essai encodage vidéo HD .m2t 1920x1080 avec ffmpeg

Salut !

golgot200 écrit :
il y a un ppa pour traGtor ?

J'ai édité et modifié mon précédent message quand tu postais le tien.
Non ! Il n'y a pas de PPA pour traGtor. J'ai cru que c'était ce que tu disais avant que je ne m'aperçoive que tu parlais de FFmpeg.


Note
Bien utile le moteur de recherche de PPA. Il faut parfois insister pour joindre ce lien car très sollicité.


Mon blog L'effet Papy Ion - | - Éditeur BBCode - Ma Bécane
Ma Bécane alimentée par Trusty 14.04 + additif VirtualBox (Elementary OS Luna)  | Portable LDLC Aurore : Precise 12.04

Hors ligne

#30 Le 14/01/2013, à 22:50

golgot200

Re : essai encodage vidéo HD .m2t 1920x1080 avec ffmpeg

Attend je poste :

Par le ppa, j'ai eu ça de mise à jour et installation de paquets:

Start-Date: 2013-01-14  19:30:16
Install: libavutil51:amd64 (0.10.6-0ubuntu0jon1, automatic), libopencv-imgproc2.3:amd64 (2.3.1-11ubuntu2, automatic), libtbb2:amd64 (4.0+r233-1, automatic), libopencv-core2.3:amd64 (2.3.1-11ubuntu2, automatic), libswresample0:amd64 (0.10.6-0ubuntu0jon1, automatic)
Upgrade: libswscale2:amd64 (0.8.4-0ubuntu0.12.10.1, 0.10.6-0ubuntu0jon1), libavfilter2:amd64 (0.8.4-0ubuntu0.12.10.1, 0.10.6-0ubuntu0jon1), libavutil-extra-51:amd64 (0.8.4ubuntu0.12.10.1+medibuntu1, 0.10.6-0ubuntu0jon1), libav-tools:amd64 (0.8.4-0ubuntu0.12.10.1, 0.10.6-0ubuntu0jon1), libavdevice53:amd64 (0.8.4-0ubuntu0.12.10.1, 0.10.6-0ubuntu0jon1), ffmpeg:amd64 (0.8.4-0ubuntu0.12.10.1, 0.10.6-0ubuntu0jon1), libpostproc52:amd64 (0.8.4-0ubuntu0.12.10.1, 0.10.6-0ubuntu0jon1), libavformat53:amd64 (0.8.4-0ubuntu0.12.10.1, 0.10.6-0ubuntu0jon1), libavcodec-extra-53:amd64 (0.8.4ubuntu0.12.10.1+medibuntu1, 0.10.6-0ubuntu0jon1)
End-Date: 2013-01-14  19:30:34

Et pour Tragtor le paquet python-glade2 (ça normal)

Toi aussi ?

Dernière modification par golgot200 (Le 14/01/2013, à 23:11)


"L’ultime question … L’intelligence a besoin de la Bêtise pour s’affirmer, La Beauté a besoin de la Laideur pour resplendir, Le Courage naît dans la Peur, Les Forts impressionnent au milieu des Faibles, Mais au final,…Qui a donc besoin d’autant de connards ?"

Hors ligne

#31 Le 14/01/2013, à 22:53

golgot200

Re : essai encodage vidéo HD .m2t 1920x1080 avec ffmpeg

Puis au départ dans format video none audio none pour voir
et target container matroska pour voir
Et rien d'autre.
Dis moi si ça part

EDIT: Il y a des paquets du dépot medibuntu aussi :
libavcodec-extra-53:amd64 (0.8.4ubuntu0.12.10.1+medibuntu1)...

Casse pas ton système wink

Dernière modification par golgot200 (Le 14/01/2013, à 23:12)


"L’ultime question … L’intelligence a besoin de la Bêtise pour s’affirmer, La Beauté a besoin de la Laideur pour resplendir, Le Courage naît dans la Peur, Les Forts impressionnent au milieu des Faibles, Mais au final,…Qui a donc besoin d’autant de connards ?"

Hors ligne

#32 Le 14/01/2013, à 23:26

bishop

Re : essai encodage vidéo HD .m2t 1920x1080 avec ffmpeg

Je vais regarder tout cela.

Hors sujet.
En ce moment je fais une MAJ des paquets et ça rame pour le script oracle-java7-installer qui permet de se connecter aux serveurs d'Oracle pour télécharger l'archive avant de l'installer. Comme c'est parti il y en a pour une demi-heure si c'est pas plus. Les serveurs doivent être surchargés.

Je reviens au sujet...
Il y a aussi une MAJ du paquet traGtor qui passe en version 0.8.65. J'ai installé le dépôt proposé par le développeur mais ça rame à mort. J'ai dû décoché la MAJ du paquet pour pouvoir faire ma mise à jour.

Dernière modification par bishop (Le 14/01/2013, à 23:29)


Mon blog L'effet Papy Ion - | - Éditeur BBCode - Ma Bécane
Ma Bécane alimentée par Trusty 14.04 + additif VirtualBox (Elementary OS Luna)  | Portable LDLC Aurore : Precise 12.04

Hors ligne

#33 Le 14/01/2013, à 23:41

golgot200

Re : essai encodage vidéo HD .m2t 1920x1080 avec ffmpeg

Et ben moi je vais nettoyer le 250 paquets installer par la lib32 (ça va me prendre du temps)....

Trop fort, moi sans les lib32 nada big_smile
Et toi pas Tragtor, c'est cool tout ça lol

Dernière modification par golgot200 (Le 15/01/2013, à 00:26)


"L’ultime question … L’intelligence a besoin de la Bêtise pour s’affirmer, La Beauté a besoin de la Laideur pour resplendir, Le Courage naît dans la Peur, Les Forts impressionnent au milieu des Faibles, Mais au final,…Qui a donc besoin d’autant de connards ?"

Hors ligne

#34 Le 15/01/2013, à 01:41

bishop

Re : essai encodage vidéo HD .m2t 1920x1080 avec ffmpeg

Test de traGtor comme tu le proposes dans le poste #31 et ça ne fonctionne pas. Je n'ai changé aucuns paramètres et choisi Matroska comme container.
Note que je n'ai pas encore fait la vérification des dépendances.

Input #0, matroska,webm, from '/home/bishop/Bureau/Prometheus.mkv':
Duration: 00:03:22.14, start: 0.000000, bitrate: 2263 kb/s
Stream #0:0(eng): Video: vp8, yuv420p, 1280x720, SAR 1:1 DAR 16:9, 1k fps, 1k tbr, 1k tbn, 1k tbc (default)
Stream #0:1: Audio: vorbis, 44100 Hz, stereo, fltp (default)
[matroska,webm @ 0x2cd9ac0] Invalid stream specifier: .0.
Last message repeated 3 times
Stream map '0.0' matches no streams.

Dernière modification par bishop (Le 15/01/2013, à 01:48)


Mon blog L'effet Papy Ion - | - Éditeur BBCode - Ma Bécane
Ma Bécane alimentée par Trusty 14.04 + additif VirtualBox (Elementary OS Luna)  | Portable LDLC Aurore : Precise 12.04

Hors ligne

#35 Le 15/01/2013, à 01:56

golgot200

Re : essai encodage vidéo HD .m2t 1920x1080 avec ffmpeg

Et bien la 0.8.65 ne fonctionne pas du tout.
la 0.8.64 pas mieux.
Une le container pas choisi tu peux lancer le traitement puis ça plante et l'autre si pas choisi tu ne peux pas. et elle plante aussi.
Par défault un fichier de sortie fichier.out et l'autre un fichier.mpg alors qu'aucun container n'est choisi.


la 0.8.63 fontionne nikel après purge et .tragtor viré du home et redémarrage !!!

Input #0, matroska,webm, from '/home/patrick/Vidéos/Hamburger Hill 1987.mkv':
Metadata:
title           : Hamburger Hill 1987 BluRay 720p Multi
CREATION_TIME   : 2012-10-31 17:18:12
ALBUM           :
ARTIST          :
COMMENT         :
COPYRIGHT       :
track           :
DATE            :
ALBUM_ARTIST    :
COMPOSER        :
ENCODER         : Lavf53.28.100
Duration: 01:50:01.38, start: 0.000000, bitrate: 2141 kb/s
Chapter #0.0: start 0.000000, end 300.000000
Metadata:
title           : 00:00:00.000
Chapter #0.1: start 300.000000, end 600.000000
Metadata:
title           : 00:05:00.000
Chapter #0.2: start 600.000000, end 900.000000
Metadata:
title           : 00:10:00.000
Chapter #0.3: start 900.000000, end 1200.000000
Metadata:
title           : 00:15:00.000
Chapter #0.4: start 1200.000000, end 1500.000000
Metadata:
title           : 00:20:00.000
Chapter #0.5: start 1500.000000, end 1800.000000
Metadata:
title           : 00:25:00.000
Chapter #0.6: start 1800.000000, end 2100.000000
Metadata:
title           : 00:30:00.000
Chapter #0.7: start 2100.000000, end 2400.000000
Metadata:
title           : 00:35:00.000
Chapter #0.8: start 2400.000000, end 2700.000000
Metadata:
title           : 00:40:00.000
Chapter #0.9: start 2700.000000, end 3000.000000
Metadata:
title           : 00:45:00.000
Chapter #0.10: start 3000.000000, end 3300.000000
Metadata:
title           : 00:50:00.000
Chapter #0.11: start 3300.000000, end 3600.000000
Metadata:
title           : 00:55:00.000
Chapter #0.12: start 3600.000000, end 3900.000000
Metadata:
title           : 01:00:00.000
Chapter #0.13: start 3900.000000, end 4200.000000
Metadata:
title           : 01:05:00.000
Chapter #0.14: start 4200.000000, end 4500.000000
Metadata:
title           : 01:10:00.000
Chapter #0.15: start 4500.000000, end 4800.000000
Metadata:
title           : 01:15:00.000
Chapter #0.16: start 4800.000000, end 5100.000000
Metadata:
title           : 01:20:00.000
Chapter #0.17: start 5100.000000, end 5400.000000
Metadata:
title           : 01:25:00.000
Chapter #0.18: start 5400.000000, end 5700.000000
Metadata:
title           : 01:30:00.000
Chapter #0.19: start 5700.000000, end 6000.000000
Metadata:
title           : 01:35:00.000
Chapter #0.20: start 6000.000000, end 6300.000000
Metadata:
title           : 01:40:00.000
Chapter #0.21: start 6300.000000, end 6601.387000
Metadata:
title           : 01:45:00.000
Stream #0:0(eng): Video: h264 (High), yuv420p, 1280x720 [SAR 1:1 DAR 16:9], 23.98 fps, 23.98 tbr, 1k tbn, 47.95 tbc (default)
Metadata:
title           : x264
LANGUAGE        : eng
Stream #0:1(eng): Audio: ac3, 48000 Hz, 5.1(side), s16, 384 kb/s (default)
Stream #0:2(fre): Audio: ac3, 48000 Hz, 5.1(side), s16, 256 kb/s
Stream #0:3(fre): Subtitle: text
Metadata:
title           : complets
Stream #0:4(fre): Subtitle: text (default)
Metadata:
title           : forcés
[buffer @ 0x14f3fa0] w:1280 h:720 pixfmt:yuv420p tb:1/1000000 sar:1/1 sws_param:
[libx264 @ 0x1501560] using SAR=1/1
[libx264 @ 0x1501560] using cpu capabilities: MMX2 SSE2Fast SSSE3 Cache64
[libx264 @ 0x1501560] profile High, level 3.1
[libx264 @ 0x1501560] 264 - core 123 r2189 35cf912 - H.264/MPEG-4 AVC codec - Copyleft 2003-2012 - http://www.videolan.org/x264.html - options: cabac=1 ref=3 deblock=1:0:0 analyse=0x3:0x113 me=hex subme=7 psy=1 psy_rd=1.00:0.00 mixed_ref=1 me_range=16 chroma_me=1 trellis=1 8x8dct=1 cqm=0 deadzone=21,11 fast_pskip=1 chroma_qp_offset=-2 threads=3 sliced_threads=0 nr=0 decimate=1 interlaced=0 bluray_compat=0 constrained_intra=0 bframes=3 b_pyramid=2 b_adapt=1 b_bias=0 direct=1 weightb=1 open_gop=0 weightp=2 keyint=250 keyint_min=23 scenecut=40 intra_refresh=0 rc_lookahead=40 rc=crf mbtree=1 crf=23.0 qcomp=0.60 qpmin=0 qpmax=69 qpstep=4 ip_ratio=1.40 aq=1:1.00
Output #0, matroska, to '/home/patrick/ff.mkv':
Metadata:
title           : Hamburger Hill 1987 BluRay 720p Multi
CREATION_TIME   : 2012-10-31 17:18:12
ALBUM           :
ARTIST          :
COMMENT         :
COPYRIGHT       :
PART_NUMBER     :
DATE            :
ALBUM_ARTIST    :
COMPOSER        :
encoder         : Lavf53.32.100
Chapter #0.0: start 0.000000, end 300.000000
Metadata:
title           : 00:00:00.000
Chapter #0.1: start 300.000000, end 600.000000
Metadata:
title           : 00:05:00.000
Chapter #0.2: start 600.000000, end 900.000000
Metadata:
title           : 00:10:00.000
Chapter #0.3: start 900.000000, end 1200.000000
Metadata:
title           : 00:15:00.000
Chapter #0.4: start 1200.000000, end 1500.000000
Metadata:
title           : 00:20:00.000
Chapter #0.5: start 1500.000000, end 1800.000000
Metadata:
title           : 00:25:00.000
Chapter #0.6: start 1800.000000, end 2100.000000
Metadata:
title           : 00:30:00.000
Chapter #0.7: start 2100.000000, end 2400.000000
Metadata:
title           : 00:35:00.000
Chapter #0.8: start 2400.000000, end 2700.000000
Metadata:
title           : 00:40:00.000
Chapter #0.9: start 2700.000000, end 3000.000000
Metadata:
title           : 00:45:00.000
Chapter #0.10: start 3000.000000, end 3300.000000
Metadata:
title           : 00:50:00.000
Chapter #0.11: start 3300.000000, end 3600.000000
Metadata:
title           : 00:55:00.000
Chapter #0.12: start 3600.000000, end 3900.000000
Metadata:
title           : 01:00:00.000
Chapter #0.13: start 3900.000000, end 4200.000000
Metadata:
title           : 01:05:00.000
Chapter #0.14: start 4200.000000, end 4500.000000
Metadata:
title           : 01:10:00.000
Chapter #0.15: start 4500.000000, end 4800.000000
Metadata:
title           : 01:15:00.000
Chapter #0.16: start 4800.000000, end 5100.000000
Metadata:
title           : 01:20:00.000
Chapter #0.17: start 5100.000000, end 5400.000000
Metadata:
title           : 01:25:00.000
Chapter #0.18: start 5400.000000, end 5700.000000
Metadata:
title           : 01:30:00.000
Chapter #0.19: start 5700.000000, end 6000.000000
Metadata:
title           : 01:35:00.000
Chapter #0.20: start 6000.000000, end 6300.000000
Metadata:
title           : 01:40:00.000
Chapter #0.21: start 6300.000000, end 6601.387000
Metadata:
title           : 01:45:00.000
Stream #0:0(eng): Video: h264, yuv420p, 1280x720 [SAR 1:1 DAR 16:9], q=-1--1, 1k tbn, 23.98 tbc (default)
Metadata:
title           : x264
LANGUAGE        : eng
Stream #0:1(eng): Audio: vorbis, 48000 Hz, 2 channels, s16, 384 kb/s (default)
Stream mapping:
Stream #0:0 -> #0:0 (h264 -> libx264)
Stream #0:1 -> #0:1 (ac3 -> libvorbis)
Press [q] to stop, [?] for help
Input stream #0:1 frame changed from rate:48000 fmt:s16 ch:6 to rate:48000 fmt:s16 ch:2
video:10159kB audio:2939kB global headers:4kB muxing overhead 0.393479%

Toi, je pense que c'est au niveau de la vidéo. Moi, je viens de m'apercevoir que chez moi, le bitrate audio de certaines de
mes vidéos de base est trop haut et si je ne baisse pas = plantage

Dernière modification par golgot200 (Le 15/01/2013, à 03:46)


"L’ultime question … L’intelligence a besoin de la Bêtise pour s’affirmer, La Beauté a besoin de la Laideur pour resplendir, Le Courage naît dans la Peur, Les Forts impressionnent au milieu des Faibles, Mais au final,…Qui a donc besoin d’autant de connards ?"

Hors ligne

#36 Le 15/01/2013, à 09:15

bishop

Re : essai encodage vidéo HD .m2t 1920x1080 avec ffmpeg

Bon! Ben... j'ai vérifié les codecs installés :

ffmpeg 7:2013011120333-git-1 (compilé)

libavcodec-extra-53_0.10.6-0ubuntu0jon1 (PPA Jon Severrinson)
libavutil-dev_0.10.6-0ubuntu0jon1 (PPA Jon Severrinson)
libswscale2_0.10.6-0ubuntu0jon1 (PPA Jon Severrinson)
libavfilter2_0.10.6-0ubuntu0jon1 (PPA Jon Severrinson)
libswresample0_0.10.6-0ubuntu0jon1 (PPA Jon Severrinson)
libavutil-extra-51_0.10.6-0ubuntu0jon1 (PPA Jon Severrinson)
libav-tools_0.10.6-0ubuntu0jon1 (PPA Jon Severrinson)
libavdevice53_0.10.6-0ubuntu0jon1 (PPA Jon Severrinson) (pas installé)
libpostproc52_0.10.6-0ubuntu0jon1 (PPA Jon Severrinson)
libavformat53_0.10.6-0ubuntu0jon1 (PPA Jon Severrinson)

libopencv-imgproc2.3 2.3.1-7
libopencv-core2.3 2.3.1-7
libtbb2 4.0+r233-1 (pas installé)
libavdevice53

python-glade2 2.224.0-3

J'en avais deux qui n'étaient pas installés mais leur installation n'a rien changé. traGtor ne fonctionne pas. mad


Mon blog L'effet Papy Ion - | - Éditeur BBCode - Ma Bécane
Ma Bécane alimentée par Trusty 14.04 + additif VirtualBox (Elementary OS Luna)  | Portable LDLC Aurore : Precise 12.04

Hors ligne

#37 Le 15/01/2013, à 11:56

golgot200

Re : essai encodage vidéo HD .m2t 1920x1080 avec ffmpeg

Bonjour bishop

Tu es toujours avec la même vidéo ?


"L’ultime question … L’intelligence a besoin de la Bêtise pour s’affirmer, La Beauté a besoin de la Laideur pour resplendir, Le Courage naît dans la Peur, Les Forts impressionnent au milieu des Faibles, Mais au final,…Qui a donc besoin d’autant de connards ?"

Hors ligne

#38 Le 15/01/2013, à 12:12

bishop

Re : essai encodage vidéo HD .m2t 1920x1080 avec ffmpeg

Oui ! Toujours la même vidéo. J'ai fait un test sans modifier les options et un test en modifiant les options et le résultat est le même.
Je testerai avec une autre vidéo mais j'avais déjà fait des tests avec trois autres vidéos de formats différents et le problème était toujours le même... un message d'erreur semblable à celui que j'ai posté. Je clique sur Show... pour démarrer le conversion et l'arrêt est instantané (message d'erreur). Il ne se passe rien.

Dernière modification par bishop (Le 15/01/2013, à 12:13)


Mon blog L'effet Papy Ion - | - Éditeur BBCode - Ma Bécane
Ma Bécane alimentée par Trusty 14.04 + additif VirtualBox (Elementary OS Luna)  | Portable LDLC Aurore : Precise 12.04

Hors ligne

#39 Le 15/01/2013, à 12:21

golgot200

Re : essai encodage vidéo HD .m2t 1920x1080 avec ffmpeg

Je vois que ton ffmpeg est compilé ?
Et si tu met audio et vidéo sur streaming (ce qui équivaut à copy), le log fonctionne ?

Dernière modification par golgot200 (Le 15/01/2013, à 12:48)


"L’ultime question … L’intelligence a besoin de la Bêtise pour s’affirmer, La Beauté a besoin de la Laideur pour resplendir, Le Courage naît dans la Peur, Les Forts impressionnent au milieu des Faibles, Mais au final,…Qui a donc besoin d’autant de connards ?"

Hors ligne

#40 Le 15/01/2013, à 13:47

bishop

Re : essai encodage vidéo HD .m2t 1920x1080 avec ffmpeg

golgot200 écrit :
Et si tu met audio et vidéo sur streaming (ce qui équivaut à copy), le log fonctionne ?

Toujours pareil...

Input #0, matroska,webm, from '/home/bishop/Bureau/Prometheus.mkv':
Duration: 00:03:22.14, start: 0.000000, bitrate: 2263 kb/s
Stream #0:0(eng): Video: vp8, yuv420p, 1280x720, SAR 1:1 DAR 16:9, 1k fps, 1k tbr, 1k tbn, 1k tbc (default)
Stream #0:1: Audio: vorbis, 44100 Hz, stereo, fltp (default)
[matroska,webm @ 0x31a89a0] Invalid stream specifier: .0.
Last message repeated 3 times
Stream map '0.0' matches no streams.

Dernière modification par bishop (Le 15/01/2013, à 13:48)


Mon blog L'effet Papy Ion - | - Éditeur BBCode - Ma Bécane
Ma Bécane alimentée par Trusty 14.04 + additif VirtualBox (Elementary OS Luna)  | Portable LDLC Aurore : Precise 12.04

Hors ligne

#41 Le 15/01/2013, à 13:53

bishop

Re : essai encodage vidéo HD .m2t 1920x1080 avec ffmpeg

Sur une autre vidéo, format mp4. Je ne change que le bitrate audio.

Input #0, avi, from '/home/bishop/Bureau/Evanescence.mp4':
Duration: 00:03:19.60, start: 0.000000, bitrate: 1936 kb/s
Stream #0:0: Video: mpeg4 (DX50 / 0x30355844), yuv420p, 768x576 [SAR 1:1 DAR 4:3], 25 fps, 25 tbr, 25 tbn, 30k tbc
Metadata:
title           : Main
Stream #0:1: Audio: mp3 (U[0][0][0] / 0x0055), 24000 Hz, stereo, s16p, 160 kb/s
Metadata:
title           : Audio
[avi @ 0x1c5eac0] Invalid stream specifier: .0.
Last message repeated 3 times
Stream map '0.0' matches no streams.

Dernière modification par bishop (Le 15/01/2013, à 13:53)


Mon blog L'effet Papy Ion - | - Éditeur BBCode - Ma Bécane
Ma Bécane alimentée par Trusty 14.04 + additif VirtualBox (Elementary OS Luna)  | Portable LDLC Aurore : Precise 12.04

Hors ligne

#42 Le 15/01/2013, à 14:34

golgot200

Re : essai encodage vidéo HD .m2t 1920x1080 avec ffmpeg

Je vais regarder.

ici :
http://ffmpeg-users.933282.n4.nabble.co … 91165.html
Je pense que ça vient de ffmpeg.

Dernière modification par golgot200 (Le 15/01/2013, à 14:35)


"L’ultime question … L’intelligence a besoin de la Bêtise pour s’affirmer, La Beauté a besoin de la Laideur pour resplendir, Le Courage naît dans la Peur, Les Forts impressionnent au milieu des Faibles, Mais au final,…Qui a donc besoin d’autant de connards ?"

Hors ligne

#43 Le 15/01/2013, à 14:47

bishop

Re : essai encodage vidéo HD .m2t 1920x1080 avec ffmpeg

Possible !
Mais si c'est cela c'est pénible car sur le site de traGtor il préconise de compiler FFmpeg en se basant sur ce tutoriel car le FFmpeg des dépôts ubuntu est compilé sans certaines options indispensables à traGtor.

Soit dit en passant ce tuto est vraiment bien fait.


Mon blog L'effet Papy Ion - | - Éditeur BBCode - Ma Bécane
Ma Bécane alimentée par Trusty 14.04 + additif VirtualBox (Elementary OS Luna)  | Portable LDLC Aurore : Precise 12.04

Hors ligne

#44 Le 15/01/2013, à 14:50

golgot200

Re : essai encodage vidéo HD .m2t 1920x1080 avec ffmpeg

Et de plus tu n'est pas le seul à avoir ces messages :
http://mein-neues-blog.de/tragtor-gui-for-ffmpeg/

Dernière modification par golgot200 (Le 15/01/2013, à 14:59)


"L’ultime question … L’intelligence a besoin de la Bêtise pour s’affirmer, La Beauté a besoin de la Laideur pour resplendir, Le Courage naît dans la Peur, Les Forts impressionnent au milieu des Faibles, Mais au final,…Qui a donc besoin d’autant de connards ?"

Hors ligne

#45 Le 15/01/2013, à 15:23

golgot200

Re : essai encodage vidéo HD .m2t 1920x1080 avec ffmpeg

Onglet Settings
traGtor:0.8.63
FFmpeg:0.10.6-6:0.10.6-0ubuntu0jon1 Copyright
Build Date:Nov 12 2012 12:53:40 with gcc 4.7.2
libavdevice:53.  4.100 / 53.  4.100                     #
libavformat:53. 32.100 / 53. 32.100                     # Moi avec ffmpeg 0.8 , j'avais rien, toi avec ffmpeg 0.10 compilé c'est bon
libavutil:51. 35.100 / 51. 35.100                       #
libavcodec:53. 61.100 / 53. 61.100                      #

Compiler Options:

-arch=amd64 --enable-pthreads --enable-runtime-cpudetect --extra-version='6:0.10.6-0ubuntu0jon1' --libdir=/usr/lib/x86_64-linux-gnu --disable-stripping --prefix=/usr --enable-bzlib --enable-libdc1394 --enable-libfreetype --enable-frei0r --enable-gnutls --enable-libgsm --enable-libmp3lame --enable-librtmp --enable-libopencv --enable-libopenjpeg --enable-libpulse --enable-libschroedinger --enable-libspeex --enable-libtheora --enable-vaapi --enable-vdpau --enable-libvorbis --enable-libvpx --enable-zlib --enable-gpl --enable-postproc --enable-libcdio --enable-x11grab --enable-libx264 --shlibdir=/usr/lib/x86_64-linux-gnu --enable-shared --disable-static

Moi, je serais toi, je nettoie le ffmpeg compilé, à moins que les enable ci dessus soient comme moi ou mieux.
Le ppa que moi j'utilise pour ffmpeg + le dépot medibutu mais ça tu l'a mis.

Mais bon, je trouve vraiment compliqué d'utiliser ce programme comme il faut. J'ai une 0.8.63 qui tourne, je reste dessus.
L'histoire du bitrate audio qui lui convient pas et à baisser à 384 voir moins, bizarre aussi....

Dernière modification par golgot200 (Le 15/01/2013, à 15:31)


"L’ultime question … L’intelligence a besoin de la Bêtise pour s’affirmer, La Beauté a besoin de la Laideur pour resplendir, Le Courage naît dans la Peur, Les Forts impressionnent au milieu des Faibles, Mais au final,…Qui a donc besoin d’autant de connards ?"

Hors ligne

#46 Le 15/01/2013, à 15:51

bishop

Re : essai encodage vidéo HD .m2t 1920x1080 avec ffmpeg

Bon ! En lisant (tant bien que mal) les messages sur le lien proposé dans ton poste #44, comme conseillé par le développeur, j'ai modifié l'option dans Select Stream Separator ( . vers : ) et j'ai eu un résultat, pas celui escompté, mais traGtor m'a sorti une vidéo lisible :

Le journal dans traGtor :

Input #0, avi, from '/home/bishop/Bureau/Evanescence.mp4':
Duration: 00:03:19.60, start: 0.000000, bitrate: 1936 kb/s
Stream #0:0: Video: mpeg4 (DX50 / 0x30355844), yuv420p, 768x576 [SAR 1:1 DAR 4:3], 25 fps, 25 tbr, 25 tbn, 30k tbc
Metadata:
title           : Main
Stream #0:1: Audio: mp3 (U[0][0][0] / 0x0055), 24000 Hz, stereo, s16p, 160 kb/s
Metadata:
title           : Audio
Output #0, mp4, to '/home/bishop/Bureau/eva.mp4':
Metadata:
encoder         : Lavf54.59.107
Stream #0:0: Video: mpeg4 ( [0][0][0] / 0x0020), yuv420p, 768x576 [SAR 1:1 DAR 4:3], q=2-31, 25 fps, 12800 tbn, 25 tbc
Metadata:
title           : Main
Stream #0:1: Audio: mp3 (i[0][0][0] / 0x0069), 24000 Hz, stereo, s16p, 320 kb/s
Metadata:
title           : Audio
Stream mapping:
Stream #0:0 -> #0:0 (copy)
Stream #0:1 -> #0:1 (mp3 -> libmp3lame)
Press [q] to stop, [?] for help
[mp4 @ 0x25d6980] pts has no value
Last message repeated 943 times
video:43046kB audio:3899kB subtitle:0 global headers:0kB muxing overhead 0.200168%

La sortie du Terminal :

bishop@JC:~/Bureau$ tragtor 

### Analyzing: /home/bishop/Bureau/Evanescence.mp4
Duration: 00:03:19.60, start: 0.000000, bitrate: 1936 kb/s
Stream #0:0: Video: mpeg4 (DX50 / 0x30355844), yuv420p, 768x576 [SAR 1:1 DAR 4:3], 25 fps, 25 tbr, 25 tbn, 30k tbc
Stream #0:1: Audio: mp3 (U[0][0][0] / 0x0055), 24000 Hz, stereo, s16p, 160 kb/s
Input #0, avi, from '/home/bishop/Bureau/Evanescence.mp4':
Duration: 00:03:19.60, start: 0.000000, bitrate: 1936 kb/s
Stream #0:0: Video: mpeg4 (DX50 / 0x30355844), yuv420p, 768x576 [SAR 1:1 DAR 4:3], 25 fps, 25 tbr, 25 tbn, 30k tbc
Metadata:
title           : Main
Stream #0:1: Audio: mp3 (U[0][0][0] / 0x0055), 24000 Hz, stereo, s16p, 160 kb/s
Metadata:
title           : Audio
Output #0, mp4, to '/home/bishop/Bureau/eva.mp4':
Metadata:
encoder         : Lavf54.59.107
Stream #0:0: Video: mpeg4 ( [0][0][0] / 0x0020), yuv420p, 768x576 [SAR 1:1 DAR 4:3], q=2-31, 25 fps, 12800 tbn, 25 tbc
Metadata:
title           : Main
Stream #0:1: Audio: mp3 (i[0][0][0] / 0x0069), 24000 Hz, stereo, s16p, 320 kb/s
Metadata:
title           : Audio
Stream mapping:
Stream #0:0 -> #0:0 (copy)
Stream #0:1 -> #0:1 (mp3 -> libmp3lame)
Press [q] to stop, [?] for help
[mp4 @ 0x25d6980] pts has no value
Last message repeated 943 times
video:43046kB audio:3899kB subtitle:0 global headers:0kB muxing overhead 0.200168%

Bon !!!!
J'avais coché Streamcopy pour la vidéo et voila le résultat.

  • Le format initial : Codec DivX MPEG-4 Version 5 - Dimensions 768 x 576 - Cadence 25 images par seconde

  • Le format sorti : Codec MPEG-4 video - Dimensions 768 x 576 - Cadence 25 images par seconde


Je n'ai modifié qu'une option pour l'audio, bitrate 160 kb/s passé en 320 kb/s. Résultat :

  • Le format initial : Codec MPEG 2 Audio, Layer 3 (MP3) -  - Echantillonage 24000 Hz - Débit 160 kb/s

  • Le format sorti : Codec MPEG 2 Audio, Layer 3 (MP3) - Echantillonage 24000 Hz - Débit 160 kb/s


Le bitrate ou débit n'a pas été modifié et pourtant je dispose bien de l'option dans FFmpeg :

bishop@JC:~/Bureau$ ffmpeg -h
ffmpeg version git-2013-01-11-6832938 Copyright (c) 2000-2013 the FFmpeg developers
  built on Jan 12 2013 03:33:34 with gcc 4.6 (Ubuntu/Linaro 4.6.3-1ubuntu5)
  configuration: --enable-gpl --enable-libass --enable-libfaac --enable-libfdk-aac --enable-libmp3lame --enable-libopencore-amrnb --enable-libopencore-amrwb --enable-librtmp --enable-libtheora --enable-libvorbis --enable-libvpx --enable-x11grab --enable-libx264 --enable-nonfree --enable-version3 --enable-libopus
  libavutil      52. 13.100 / 52. 13.100
  libavcodec     54. 86.100 / 54. 86.100
  libavformat    54. 59.107 / 54. 59.107
  libavdevice    54.  3.102 / 54.  3.102
  libavfilter     3. 32.100 /  3. 32.100
  libswscale      2.  1.103 /  2.  1.103
  libswresample   0. 17.102 /  0. 17.102
  libpostproc    52.  2.100 / 52.  2.100
Hyper fast Audio and Video encoder

Mais on avance... wink

Dernière modification par bishop (Le 15/01/2013, à 16:29)


Mon blog L'effet Papy Ion - | - Éditeur BBCode - Ma Bécane
Ma Bécane alimentée par Trusty 14.04 + additif VirtualBox (Elementary OS Luna)  | Portable LDLC Aurore : Precise 12.04

Hors ligne

#47 Le 15/01/2013, à 15:55

golgot200

Re : essai encodage vidéo HD .m2t 1920x1080 avec ffmpeg

Ha ha, il y a du mieux !!!!

Dernière modification par golgot200 (Le 15/01/2013, à 15:55)


"L’ultime question … L’intelligence a besoin de la Bêtise pour s’affirmer, La Beauté a besoin de la Laideur pour resplendir, Le Courage naît dans la Peur, Les Forts impressionnent au milieu des Faibles, Mais au final,…Qui a donc besoin d’autant de connards ?"

Hors ligne

#48 Le 15/01/2013, à 16:06

golgot200

Re : essai encodage vidéo HD .m2t 1920x1080 avec ffmpeg

Trop cool la dernière version 0.8.65 maintenant fonctionne chez moi aussi avec l'option dans Select Stream Separator ( . vers : ) !!!!
Option que je n'avais pas dans 0.8.63. Dur dur de se dépanner si on a des versions et des options différentes.

Même les bitrates audio élevés ( Sauf pour un fichier m2ts où je ne peux pas aller plus de 384 kbs)

Dernière modification par golgot200 (Le 15/01/2013, à 16:15)


"L’ultime question … L’intelligence a besoin de la Bêtise pour s’affirmer, La Beauté a besoin de la Laideur pour resplendir, Le Courage naît dans la Peur, Les Forts impressionnent au milieu des Faibles, Mais au final,…Qui a donc besoin d’autant de connards ?"

Hors ligne

#49 Le 15/01/2013, à 16:37

bishop

Re : essai encodage vidéo HD .m2t 1920x1080 avec ffmpeg

golgot200 !
Est-ce que tu es bon en anglais ?

J'ai fait une traduction approximative de traGtor et si tu touches un tant soit peu à la langue de Shakespeare, peux-tu me dire où ça pêche.
J'ai fait des captures d'écran, mais si tu veux le fichier lang_fr.py et les deux p'tites modif à faire dans tragtor.py pour avoir traGtor en français tu me dis.

traGtor-mini01.png

traGtor-mini02.png traGtor-mini03.png

traGtor-mini04.png traGtor-mini05.png


[Edit] Faut que je corrige les fautes d'inattention.

Dernière modification par bishop (Le 15/01/2013, à 16:41)


Mon blog L'effet Papy Ion - | - Éditeur BBCode - Ma Bécane
Ma Bécane alimentée par Trusty 14.04 + additif VirtualBox (Elementary OS Luna)  | Portable LDLC Aurore : Precise 12.04

Hors ligne

#50 Le 15/01/2013, à 16:46

golgot200

Re : essai encodage vidéo HD .m2t 1920x1080 avec ffmpeg

oh que oui que je le veux. Mais pour ce qui de l'anglais, je suis pas au top lol. Mais on peut toujours regarder les trucs qui chagrine. Sacré initiative ...

EDIT: C'est quoi ce jpg qui se trouve dans le usr/share/tragtor ??????

Dernière modification par golgot200 (Le 15/01/2013, à 16:51)


"L’ultime question … L’intelligence a besoin de la Bêtise pour s’affirmer, La Beauté a besoin de la Laideur pour resplendir, Le Courage naît dans la Peur, Les Forts impressionnent au milieu des Faibles, Mais au final,…Qui a donc besoin d’autant de connards ?"

Hors ligne

Haut de page ↑