Contenu | Rechercher | Menus

Annonce

Si vous rencontrez des soucis à rester connecté sur le forum (ou si vous avez perdu votre mot de passe) déconnectez-vous et reconnectez-vous depuis cette page, en cochant la case "Me connecter automatiquement lors de mes prochaines visites". Attention, le forum rencontre actuellement quelques difficultés. En cas d'erreur 502, il ne faut pas re-valider l'envoi d'un message ou l'ouverture d'une discussion, au risque de créer un doublon.

La section divers se réorganise ! De nouvelles sous-sections à venir. (plus d'infos + donner son avis)

#1 Le 13/05/2013, à 18:29

etienne2

[RESOLU]Openshot taille vidéo

Bonjour à tous,

Après avoir découpé une partie d'une vidéo avec openshot et l'avoir exportée je me retrouve avec une vidéo d'1Go alors que cette partie ne devrais pas dépasser 120-130Mo, c'est la quantité par rapport à la vidéo dont la partie est extraite, donc je voulais savoir si j'avais fait une erreur peut-être avec les codec ou autre.

Si quelqu'un peut m'éclairer cela serait sympa, et en plus cela m'intrigue car arriver à 1Go c'est étrange, en vous remerciant.

Dernière modification par etienne2 (Le 16/05/2013, à 15:46)

Hors ligne

#2 Le 13/05/2013, à 20:27

philoup44

Re : [RESOLU]Openshot taille vidéo

Salut etienne2
En attendant que quelqu'un d'autre intervienne

Dans le terminal, entre ces commandes

ffmpeg -i "Vidéo originale.mp4" 2>&1 | grep Stream

puis

ffmpeg -i "Vidéo coupée.mp4" 2>&1 | grep Stream

Remplace    "Vidéo originale.mp4" et  "Vidéo coupée"     par les vrais noms (avec l'extension)
et dépose ici, le résultat des commandes
Cela donnera des indications sur les fichiers

Ta version de Linux ??

NB
Pour couper une vidéo sans ré-encodage, AVIDEMUX est plus approprié wink

Dernière modification par philoup44 (Le 13/05/2013, à 20:34)

Hors ligne

#3 Le 14/05/2013, à 19:53

etienne2

Re : [RESOLU]Openshot taille vidéo

Merci philoup44 pour le tuyau,
avec AVIDEMUX c'est ce que je recherche un truc du style copier/coller mais pour un vidéo, je suis un monteur juste pour le fun, par contre tes commandes ne fonctionnent pas.
Sinon c'est ça qui m'interpelle c'est comment avec une vidéo d'1h15 qui fait 700-800Mo, j'en prends 20 min et je me retrouve avec un vidéo d'1Go.

Hors ligne

#4 Le 14/05/2013, à 21:44

philoup44

Re : [RESOLU]Openshot taille vidéo

ces commandes donneront justement des infos intéressantes sur tes fichiers qui pourraient facilement expliquer que tu obtiennes 1G0/20 min
ils y a d'autres moyens d'obtenir ces infos, bien sur, mais les commandes citées plus haut fonctionnent, je m'en sers très souvent ces derniers temps !!
Deux METHODES

1) Met tes fichiers dans ton "dossier personnel"
puis

ffmpeg -i "Vidéo coupée.mp4" 2>&1 | grep Stream

sinon

2) Entre le chemin complet de ton fichier
par exemple si ton fichier se trouve dans le dossier VIDEO

ffmpeg -i /home/etienne2/Vidéo/"Vidéo coupée.mp4" 2>&1 | grep Stream

ou

ffmpeg -i /home/etienne2/Vidéo/"Vidéo coupée".mp4 2>&1 | grep Stream

NB
quand un nom de fichier comporte des caractères spéciaux (espaces etc ..)
On "protège" ces caractères spéciaux pour qu'ils ne soient pas interprétés par le shell
pour les protéger, on met le nom du fichier entre   guillemets  " "     ou    apostrophes ' '
si le fichier s'appelle ---> mon fichier vidéo.mp4 (ici, des espaces)
on l'écrira comme ceci ---> "mon fichier vidéo.mp4"   ou  "mon fichier vidéo".mp4  ou  'mon fichier vidéo.mp4' ou  'mon fichier vidéo'.mp4
Shell : Caracteres speciaux
Guillemets et apostrophes

Dernière modification par philoup44 (Le 15/05/2013, à 10:11)

Hors ligne

#5 Le 15/05/2013, à 22:36

etienne2

Re : [RESOLU]Openshot taille vidéo

@philoup44 Ca marche, c'est moi qui me suis planté.
Donc voila:
pour la vidéo d'origine 1h20 729Mo:

:~$ ffmpeg -i "bateau.avi" 2>&1 | grep Stream
    Stream #0.0: Video: mpeg4, yuv420p, 640x480 [PAR 1:1 DAR 4:3], 25 fps, 25 tbr, 25 tbn, 30k tbc
    Stream #0.1: Audio: mp3, 44100 Hz, stereo, s16, 96 kb/s

et pour le morceau que j'ai coupé 20min 1.3Go :

ffmpeg -i "bateau2.avi" 2>&1 | grep Stream
    Stream #0.0: Video: asv1, yuv420p, 720x480, PAR 8:9 DAR 4:3, 29.97 tbr, 29.97 tbn, 29.97 tbc
    Stream #0.1: Audio: aac, 44100 Hz, stereo, s16, 256 kb/s

Hors ligne

#6 Le 15/05/2013, à 23:34

philoup44

Re : [RESOLU]Openshot taille vidéo

Vidéo 1 ---> 640x480   ,codec vidéo mpe4  ,codec audio   96 kb/s  mp3
Vidéo 2 ---> 720x480   ,codec vidéo  asv1  ,codec audio  256 kb/s aac
Dans la vidéo 2 tout est plus "lourd"
De plus tu es passé dirait-on de 25 images/sec à 29,97 images/sec
il est inutile de mettre plus que l'originale (sauf exceptions particulières)
Grosso modo, une image de 720x480 pèse plus lourd qu'une image de 640x480 (et multiplié par ,25 ou 30 par secondes .....)
                       une musique de 256 kb/s pèse plus lourd qu'une musique de 96 kb/s
Il faut Garder le meme Ratio aussi, 4:3 , 16:9 etc ...
Sans tenir compte des formats ou codecs
et du débit
ouvre tes vidéos quelques secondes, et dans propriété regarde leurs débits, il y a des chances qu'ils soient très différents aussi ...

Donc, ici tout est "normal", si l'on peut dire, ou du moins s'explique ...

Avec OPENSHOT, tu pouvais par exemple choisir ces options
1368657608.png

NB
Le simple changement de format peut donner des poids différents selon la qualité d'encodage
Tu vas devoir comme nous tous faire des tests sur des extraits de vidéo pour trouver les meilleurs compromis rapport poids/qualité
qui peuvent varier selon les formats et codecs utilisés smile

Pour de simples coupes franches, AVIDEMUX est le plus approprié, car sans ré-encodage, si tu laisses --->  Vidéo et audio sur "COPIE"
Mais faire attention à certains codecs qui passent moins bien que d'autres ....
Par exemple
Couper une video .mp4 (h264/AAC)
[RESOLU]découper un fichier flv avec avidemux

Dernière modification par philoup44 (Le 15/05/2013, à 23:59)

Hors ligne

#7 Le 16/05/2013, à 15:46

etienne2

Re : [RESOLU]Openshot taille vidéo

Merci philoup44,
Avec la commande

ffmpeg -i "Vidéo" 2>&1 | grep Stream

cela permet de voir les "formats" de la vidéo et ensuite de les appliquer à la vidéo "fille", moi j'y allais un peu au hasard, donc choisir les bonnes options et bosser les codecs. Mais c'est vrai que pour ce que je fais AVIDEMUX est parfait.
Et j'ai surtout ma réponse sur le fait de me retrouver avec une plus courte et bien plus lourde.

Hors ligne

#8 Le 16/05/2013, à 16:08

philoup44

Re : [RESOLU]Openshot taille vidéo

Tu as MEDIAINFO également ,très complet pour un max d'info, bitrate etc .... smile

Hors ligne

Haut de page ↑