Contenu | Rechercher | Menus

Annonce

Si vous rencontrez des soucis à rester connecté sur le forum (ou si vous avez perdu votre mot de passe) déconnectez-vous et reconnectez-vous depuis cette page, en cochant la case "Me connecter automatiquement lors de mes prochaines visites". Attention, le forum rencontre actuellement quelques difficultés. En cas d'erreur 502, il ne faut pas re-valider l'envoi d'un message ou l'ouverture d'une discussion, au risque de créer un doublon.

La section divers se réorganise ! De nouvelles sous-sections à venir. (plus d'infos + donner son avis)

#1 Le 12/07/2013, à 18:42

serviteur

Convertir une vidéo.mp4 et .flv en .avi, en.mpg, en Divx... pour lecte

Salut,

J'aimerai savoir comment convertir soit par une interface graphique (Hyper Converter, WinFF...) ou par ligne de commande une vidéo téléchargé sur Youtube,Vimeo aux formats .mp4 et .flv, pour qu'il soit lisible sur lecteur DVD de salon?
J'ai fait des convertions par Hyper Converter, Kdenlive.
Avec Hyper Converter:

ffmpeg -i "/home/serviteur/Prophétie.mp4" -sameq "/home/serviteur/Vidéos/Prophétie.avi"
ffmpeg -i "/home/serviteur/Prophétie.mp4" -sameq "/home/serviteur/Vidéos/Prophétie.mpg"
ffmpeg -i "/home/serviteur/The Church Will Be Confronted.flv" -sameq "/home/serviteur/Vidéos/The Church Will Be Confronted.avi"

J'ai ensuite gravé avec K3b (comme nouveua projet de média de données) sur un DVD, mais sur les lecteurs DVD de salon, le format n'est pas supporter.

Quels sont les compatibilités des formats pour le lecteur de salon:
-Video Codec
- Container Format
-Audio Codec


" Le disciple (serviteur) n'est pas plus que le maître; mais tout disciple accompli sera comme son maître." Luc 6:40;  Jean. 13:16
'' J'ai été crucifié avec Christ et je suis une nouvelle création" GAL2: 20, 2Cor5: 17, Rom 6:6-7
HP xw4600 Workstation: Intel Core 2 Quad Q9300, 4 GB RAM, Nvidia Geforce  GTX 580

Hors ligne

#2 Le 12/07/2013, à 21:17

Lulux3

Re : Convertir une vidéo.mp4 et .flv en .avi, en.mpg, en Divx... pour lecte

Bonjour
Tout dépend de ton lecteur de salon. Les lecteurs récents reconaissent le conteneur MKV, et le codec video H264 (ou X264), mais les plus anciens sont généralement limités aux conteneurs AVI et au codec XVID.
Les vidéos du net sont en général en H264, avec audio AAC, ce qui n'est effectivement compatible qu'avec les lecteurs les plus récents. Sauf erreur de ma part, les commandes ffmpeg que tu a testées ne font que changer le conteneur, sans réencoder les pistes audio et video.
Regarde la notice de ton appareil, il doit y avoir une liste des codecs supportés.
Le format suivant n'est pas le meilleur, mais il devrait être lu par la plupart des lecteurs de moins de dix ans:
- Conteneur AVI
- Video XVID (résolution maxi 768x576), bitrate 800 à 1500 kb/s
- Audio MP3 à 256 kb/s maxi

Hors ligne

#3 Le 13/07/2013, à 14:14

serviteur

Re : Convertir une vidéo.mp4 et .flv en .avi, en.mpg, en Divx... pour lecte

Bonjour,

Merci, je vais faire des tests


" Le disciple (serviteur) n'est pas plus que le maître; mais tout disciple accompli sera comme son maître." Luc 6:40;  Jean. 13:16
'' J'ai été crucifié avec Christ et je suis une nouvelle création" GAL2: 20, 2Cor5: 17, Rom 6:6-7
HP xw4600 Workstation: Intel Core 2 Quad Q9300, 4 GB RAM, Nvidia Geforce  GTX 580

Hors ligne

#4 Le 19/07/2013, à 21:05

serviteur

Re : Convertir une vidéo.mp4 et .flv en .avi, en.mpg, en Divx... pour lecte

Salut,

J'ai fait quelques essais:
Avec Avidemux, je n'ai pas eu de problèmes et les vidéos sont compatibles avec les platines/lecteurs DVD de salon.
Voici un lien sur la convertion avec Avidemux: http://www.linuxpedia.fr/doku.php/avide … ers_un_avi

Avec Hyper Video Converter, j'ai une erreur avec l'encoder Audio mp3

ffmpeg -i "/home/serviteur/Prophetie.mp4" -f avi -b 1500k -acodec mp3 -ab 128k "/home/serviteur/Vidéos/Prophetie.avi"
ffmpeg version 0.10.6-6:0.10.6-0ubuntu0jon1~precise1 Copyright (c) 2000-2012 the FFmpeg developers 
  built on Nov 12 2012 13:11:38 with gcc 4.6.3 
  configuration: --arch=amd64 --enable-pthreads --enable-runtime-cpudetect --extra-version='6:0.10.6-0ubuntu0jon1~precise1' --libdir=/usr/lib/x86_64-linux-gnu --disable-stripping --prefix=/usr --enable-bzlib --enable-libdc1394 --enable-libfreetype --enable-frei0r --enable-gnutls --enable-libgsm --enable-libmp3lame --enable-librtmp --enable-libopencv --enable-libopenjpeg --enable-libpulse --enable-libschroedinger --enable-libspeex --enable-libtheora --enable-vaapi --enable-vdpau --enable-libvorbis --enable-libvpx --enable-zlib --enable-gpl --enable-postproc --enable-libcdio --enable-x11grab --enable-libx264 --shlibdir=/usr/lib/x86_64-linux-gnu --enable-shared --disable-static 
  libavutil      51. 35.100 / 51. 35.100 
  libavcodec     53. 61.100 / 53. 61.100 
  libavformat    53. 32.100 / 53. 32.100 
  libavdevice    53.  4.100 / 53.  4.100 
  libavfilter     2. 61.100 /  2. 61.100 
  libswscale      2.  1.100 /  2.  1.100 
  libswresample   0.  6.100 /  0.  6.100 
  libpostproc    52.  0.100 / 52.  0.100 
Input #0, mov,mp4,m4a,3gp,3g2,mj2, from '/home/serviteur/Prophetie.mp4': 
  Metadata: 
    major_brand     : isom 
    minor_version   : 1 
    compatible_brands: isomavc1 
    creation_time   : 2012-02-29 07:09:17 
  Duration: 00:04:49.20, start: 0.000000, bitrate: 862 kb/s 
    Stream #0:0(und): Video: h264 (High) (avc1 / 0x31637661), yuv420p, 640x376 [SAR 1:1 DAR 80:47], 749 kb/s, 25 fps, 25 tbr, 25k tbn, 50 tbc 
    Metadata: 
      creation_time   : 2012-02-29 07:09:17 
      handler_name    : GPAC ISO Video Handler 
    Stream #0:1(und): Audio: aac (mp4a / 0x6134706D), 44100 Hz, stereo, s16, 109 kb/s 
    Metadata: 
      creation_time   : 2012-02-29 07:09:17 
      handler_name    : GPAC ISO Audio Handler 
Please use -b:a or -b:v, -b is ambiguous 
Unknown encoder 'mp3'

Avec WinFF, j'ai l'encoder  libxvid qui est inconnu.

Nom de préselection:XviDAVIFS
Titre complet du préleglage:XviD FullScreen
paramètre de présélection:

-f avi -r 29.97 -vcodec libxvid -vtag XVID -vf scale=640:480 -aspect 4:3 -maxrate 1800k -b:a 1500k -qmin 3 -qmax 5 -bufsize 4096 -mbd 2 -bf 2  2 -subcmp 2 -g 300 -acodec libmp3lame -ar 48000 -ab 128k -ac 2

Extension:avi
Catégorie:AVI

ffmpeg version 0.10.6-6:0.10.6-0ubuntu0jon1~precise1 Copyright (c) 2000-2012 the FFmpeg developers
  built on Nov 12 2012 13:11:38 with gcc 4.6.3
  configuration: --arch=amd64 --enable-pthreads --enable-runtime-cpudetect --extra-version='6:0.10.6-0ubuntu0jon1~precise1' --libdir=/usr/lib/x86_64-linux-gnu --disable-stripping --prefix=/usr --enable-bzlib --enable-libdc1394 --enable-libfreetype --enable-frei0r --enable-gnutls --enable-libgsm --enable-libmp3lame --enable-librtmp --enable-libopencv --enable-libopenjpeg --enable-libpulse --enable-libschroedinger --enable-libspeex --enable-libtheora --enable-vaapi --enable-vdpau --enable-libvorbis --enable-libvpx --enable-zlib --enable-gpl --enable-postproc --enable-libcdio --enable-x11grab --enable-libx264 --shlibdir=/usr/lib/x86_64-linux-gnu --enable-shared --disable-static
  libavutil      51. 35.100 / 51. 35.100
  libavcodec     53. 61.100 / 53. 61.100
  libavformat    53. 32.100 / 53. 32.100
  libavdevice    53.  4.100 / 53.  4.100
  libavfilter     2. 61.100 /  2. 61.100
  libswscale      2.  1.100 /  2.  1.100
  libswresample   0.  6.100 /  0.  6.100
  libpostproc    52.  0.100 / 52.  0.100
Input #0, mov,mp4,m4a,3gp,3g2,mj2, from '/home/serviteur/Prophetie.mp4':
  Metadata:
    major_brand     : isom
    minor_version   : 1
    compatible_brands: isomavc1
    creation_time   : 2012-02-29 07:09:17
  Duration: 00:04:49.20, start: 0.000000, bitrate: 862 kb/s
    Stream #0:0(und): Video: h264 (High) (avc1 / 0x31637661), yuv420p, 640x376 [SAR 1:1 DAR 80:47], 749 kb/s, 25 fps, 25 tbr, 25k tbn, 50 tbc
    Metadata:
      creation_time   : 2012-02-29 07:09:17
      handler_name    : GPAC ISO Video Handler
    Stream #0:1(und): Audio: aac (mp4a / 0x6134706D), 44100 Hz, stereo, s16, 109 kb/s
    Metadata:
      creation_time   : 2012-02-29 07:09:17
      handler_name    : GPAC ISO Audio Handler
Unknown encoder 'libxvid'
Appuyez sur Entrée pour continuer

" Le disciple (serviteur) n'est pas plus que le maître; mais tout disciple accompli sera comme son maître." Luc 6:40;  Jean. 13:16
'' J'ai été crucifié avec Christ et je suis une nouvelle création" GAL2: 20, 2Cor5: 17, Rom 6:6-7
HP xw4600 Workstation: Intel Core 2 Quad Q9300, 4 GB RAM, Nvidia Geforce  GTX 580

Hors ligne

Haut de page ↑