Contenu | Rechercher | Menus

Annonce

Toute l'équipe d'ubuntu-fr vous souhaite un joyeux Noël et une bonne et heureuse année 2018.

Ubuntu 16.04 LTS
Commandez vos DVD et clés USB Ubuntu-fr !

Pour en savoir un peu plus sur l'équipe du forum.

Si vous avez des soucis pour rester connecté, déconnectez-vous puis reconnectez-vous depuis ce lien en cochant la case
Me connecter automatiquement lors de mes prochaines visites.

#1 Le 21/03/2014, à 10:43

ded95

[RESOLU] paramètre AVCONV, augmenter le son.

Bonjour,

Certaine vidéo ont un son faible et je souhaiterai lors d'un réencodage avec avconv augenter le son.
Existe-t-il un paramètre pour cela ?

Merci

Dernière modification par ded95 (Le 21/03/2014, à 17:45)

Hors ligne

#2 Le 21/03/2014, à 17:14

Slyfox

Re : [RESOLU] paramètre AVCONV, augmenter le son.

Salut

En ligne de commande:

avconv -i file.mpg -vcodec copy -vol 1024 file_louder.mpg

-i : fichier en entrée à modifier
-vcodec copy: laisser la partie video inchangée
-vol 1024: multiplie le volume par 4

NB
-vol 128 Pour le mettre à 50% du fichier d'entrée
-vol 256 Pour le mettre à 100% du fichier d'entrée  ( la valeur de base est -vol 256)
-vol 384 Pour le mettre à 150% du niveau audio du fichier d'entrée
...

Dernière modification par Slyfox (Le 28/03/2015, à 00:00)

Hors ligne

#3 Le 21/03/2014, à 17:31

ded95

Re : [RESOLU] paramètre AVCONV, augmenter le son.

Merci , je vais essayer ça de suite.

Hors ligne

#4 Le 21/03/2014, à 17:42

ded95

Re : [RESOLU] paramètre AVCONV, augmenter le son.

Parfait, c'est exactement ce que je cherchais.
Auriez-vous l'adresse du fichier des paramètres d'AVCONV en français ?
Je l'ai en anglais mais je ne parle pas cette langue.

Encore Merci

Hors ligne

#5 Le 21/03/2014, à 19:56

Slyfox

Re : [RESOLU] paramètre AVCONV, augmenter le son.

Avconv, qui s'utilise en ligne de commande, est un fork de FFmpeg dont il est encore très proche, donc en principe ce qui fonctionne pour FFmpeg, fonctionne avec Avconv.

Regardes ce lien : http://doc.ubuntu-fr.org/avconv
Lis aussi cette page : http://doc.ubuntu-fr.org/ffmpeg

Souvent en ouvrant un terminal et en faisant "man nom-de-la-page" on trouve pas mal de réponse sur la manière d'utiliser un programme
par exemple :

man ffmpeg

Bon ce n'est pas toujours en français mais ça peu aider... pour plus d'info regarde ça : http://doc.ubuntu-fr.org/man

Tu peux aussi faire une recherche sur le net pour obtenir des réponses... on trouve beaucoup de réponses en peu de temps. cool

En passant on se tutoie tous sur ce forum... oublie les vous. wink

Dernière modification par Slyfox (Le 28/03/2015, à 00:01)

Hors ligne

#6 Le 05/08/2014, à 11:03

zebuntu

Re : [RESOLU] paramètre AVCONV, augmenter le son.

bonjour,

j'ai un fichier mp3, que j'ai besoin d'augmenter en volume, avant passage dans lebiniou (en mode -i sndfile -o diskwriter), à +25%

Votre solution ne fonctionne pas pour moi :
$ avconv -version
avconv version 9.14-6:9.14-0ubuntu0.14.04.1, Copyright (c) 2000-2014 the Libav developers
  built on Jul 15 2014 13:57:40 with gcc 4.8 (Ubuntu 4.8.2-19ubuntu1)
avconv 9.14-6:9.14-0ubuntu0.14.04.1
libavutil     52.  3. 0 / 52.  3. 0
libavcodec    54. 35. 0 / 54. 35. 0
libavformat   54. 20. 4 / 54. 20. 4
libavdevice   53.  2. 0 / 53.  2. 0
libavfilter    3.  3. 0 /  3.  3. 0
libavresample  1.  0. 1 /  1.  0. 1
libswscale     2.  1. 1 /  2.  1. 1

$ avconv -i 'mon fichier.mp3' -c:a pcm_f32le -vol 320 -y tmp.wav
avconv version 9.14-6:9.14-0ubuntu0.14.04.1, Copyright (c) 2000-2014 the Libav developers
  built on Jul 15 2014 13:57:40 with gcc 4.8 (Ubuntu 4.8.2-19ubuntu1)
[mp3 @ 0x1cb1020] max_analyze_duration reached
Guessed Channel Layout for  Input Stream #0.0 : stereo
Input #0, mp3, from 'mon fichier.mp3':
  Duration: 00:03:23.88, start: 0.000000, bitrate: 195 kb/s
    Stream #0.0: Audio: mp3, 44100 Hz, stereo, s16p, 195 kb/s
-vol has been deprecated. Use the volume audio filter instead.
Output #0, wav, to 'tmp.wav':
    Stream #0.0: Audio: pcm_f32le, 44100 Hz, stereo, flt, 2822 kb/s
Stream mapping:
  Stream #0:0 -> #0:0 (mp3 -> pcm_f32le)
Press ctrl-c to stop encoding
Input stream #0:0 frame changed from rate:44100 fmt:s16p ch:2 chl:stereo to rate:44100 fmt:s16 ch:2 chl:stereo
-vol has been deprecated. Use the volume audio filter instead.
Header missingB time=170.06 bitrate=2821.0kbits/s   
Error while decoding stream #0:0
size=   70245kB time=203.89 bitrate=2822.4kbits/s   
video:0kB audio:70245kB global headers:0kB muxing overhead 0.000267%

Alors, -vol "is deprecated"... bien. ok. d'accord... mais, alors, pourquoi on trouve encore cette option dans la doc de avconv ?
$ avconv -h full
...
Global options (affect whole program instead of just one file:
...
-vol volume         change audio volume (256=normal)
...
Per-file main options:
...
-filter filter_list  set stream filterchain (c'est ça qu'il faut utiliser à la place de -vol -- d'après la doc)
...
Audio options:
...
-vol volume         change audio volume (256=normal)
-af filter list     audio filters (heu !? ha ben nan, ce serait celui-ci, alors !? pfff...)
...
etc, etc...

Sauf, que, si j'essaie un :
(1) $ avconv -i "mon fichier.mp3" -filter volume 320 -c:a pcm_f32le -y tmp.wav
ou même un
(2) $ avconv -i "mon fichier.mp3" -af volume 320 -c:a pcm_f32le -y tmp.wav

ça ne marche pas :
(1) avconv version 9.14-6:9.14-0ubuntu0.14.04.1, Copyright (c) 2000-2014 the Libav developers
  built on Jul 15 2014 13:57:40 with gcc 4.8 (Ubuntu 4.8.2-19ubuntu1)
[mp3 @ 0x8ae720] max_analyze_duration reached
Guessed Channel Layout for  Input Stream #0.0 : stereo
Input #0, mp3, from 'mon fichier.mp3':
  Duration: 00:03:23.88, start: 0.000000, bitrate: 195 kb/s
    Stream #0.0: Audio: mp3, 44100 Hz, stereo, s16p, 195 kb/s
Unable to find a suitable output format for '320'

(2) avconv version 9.14-6:9.14-0ubuntu0.14.04.1, Copyright (c) 2000-2014 the Libav developers
  built on Jul 15 2014 13:57:40 with gcc 4.8 (Ubuntu 4.8.2-19ubuntu1)
[mp3 @ 0x874720] max_analyze_duration reached
Guessed Channel Layout for  Input Stream #0.0 : stereo
Input #0, mp3, from 'mon fichier.mp3':
  Duration: 00:03:23.88, start: 0.000000, bitrate: 195 kb/s
    Stream #0.0: Audio: mp3, 44100 Hz, stereo, s16p, 195 kb/s
Unable to find a suitable output format for '320'

Quelqu'un sait/comprend comment de servir de ces filtres !? Là, moi, je sèche... et la doc... ben, elle aide pas... et, en plus, elle est pas à jour (tout ces 'deprecated' qui trainent ici et là... tsss !)


http://zebulon.biniou.net    #biniou@irc.freenode.net

Hors ligne