Contenu | Rechercher | Menus

Annonce

Si vous rencontrez des soucis à rester connecté sur le forum (ou si vous avez perdu votre mot de passe) déconnectez-vous et reconnectez-vous depuis cette page, en cochant la case "Me connecter automatiquement lors de mes prochaines visites".
Test de l'ISO d'Ubuntu francophone : nous avons besoin de testeurs pour la version francophone d'Ubuntu 14.04. Liens et informations ici.

#1 Le 20/03/2010, à 06:10

Hell Pé

Conversion Theora-to-DV dégueulasse

Bon, ma tambouille va vous paraître tordue : je voulais extraire un court passage d'une vidéo assez longue. Je me suis servi de PiTiVi (0.13.3, la version des dépôts de Karmic quoi) pour découper le passage en question, avant de l'exporter en Theora. PiTiVi s'étant relevé incapable de faire ce que je voulais (à savoir copier-coller l'extrait en question sur la timeline ; bref, c'est probablement pas encore implémenté), j'ai donc voulu bosser avec Kino.
Et c'est là que ça foire : en important mon fichier Theora dans Kino, je passe de ceci :

1269057938.png

...à cela :

1269057968.png
(les petits malins auront reconnu Philippe Caubère)

Après un essai avec FFmpeg, j'en déduis que c'est lui le responsable. Cette ligne de commande rend précisément le même résultat :

hellpe@Koopa:~$ ffmpeg -i pash -target dv pash2.dv
FFmpeg version SVN-r19352-4:0.5+svn20090706-2ubuntu2, Copyright (c) 2000-2009 Fabrice Bellard, et al.
  configuration: --extra-version=4:0.5+svn20090706-2ubuntu2 --prefix=/usr --enable-avfilter --enable-avfilter-lavf --enable-vdpau --enable-bzlib --enable-libgsm --enable-libschroedinger --enable-libspeex --enable-libtheora --enable-libvorbis --enable-pthreads --enable-zlib --disable-stripping --disable-vhook --enable-gpl --enable-postproc --enable-swscale --enable-x11grab --enable-libdc1394 --extra-cflags=-I/build/buildd/ffmpeg-0.5+svn20090706/debian/include --enable-shared --disable-static
  libavutil     49.15. 0 / 49.15. 0
  libavcodec    52.20. 0 / 52.20. 0
  libavformat   52.31. 0 / 52.31. 0
  libavdevice   52. 1. 0 / 52. 1. 0
  libavfilter    0. 4. 0 /  0. 4. 0
  libswscale     0. 7. 1 /  0. 7. 1
  libpostproc   51. 2. 0 / 51. 2. 0
  built on Oct 13 2009 22:15:16, gcc: 4.4.1
Input #0, ogg, from 'pash':
  Duration: 00:00:03.60, start: 0.000000, bitrate: 111 kb/s
    Stream #0.0: Video: theora, yuv420p, 720x576, PAR 1:1 DAR 5:4, 25 tbr, 25 tbn, 25 tbc
    Stream #0.1: Audio: vorbis, 44100 Hz, stereo, s16, 112 kb/s
Assuming PAL for target.
Output #0, dv, to 'pash2.dv':
    Stream #0.0: Video: dvvideo, yuv420p, 720x576 [PAR 1:1 DAR 5:4], q=2-31, 200 kb/s, 90k tbn, 25 tbc
    Stream #0.1: Audio: pcm_s16le, 48000 Hz, stereo, s16, 1536 kb/s
Stream mapping:
  Stream #0.0 -> #0.0
  Stream #0.1 -> #0.1
Press [q] to stop encoding
frame=   20 fps=  0 q=0.0 Lsize=    2672kB time=0.80 bitrate=27478.7kbits/s    
video:2812kB audio:149kB global headers:0kB muxing overhead -9.790381%

Bon, en ce qui me concerne, je peux toujours reprendre PiTiVi et réexporter en autre chose que du Théora ; au pire, j'activerai le PPA des développeurs de Gstreamer. Toutefois, j'aimerais savoir où se situe l'origine du problème : Kino est la solution de montage la plus simple à installer et utiliser sous Gnome et Xfce, et ce serait dommage que tous les fichiers Theora n'y passent pas convenablement. Pourriez-vous éclairer ma lanterne ?

Dernière modification par Hell Pé (Le 20/03/2010, à 14:55)


« The future is sort of like RMS predicted, but only because the alternative is sysadmining your television, and the UNIX arts-and-crafts movement has no financial interest in actually making that easy. »
- gryazi

Hors ligne

Haut de page ↑