Contenu | Rechercher | Menus

Annonce

Si vous rencontrez des soucis à rester connecté sur le forum (ou si vous avez perdu votre mot de passe) déconnectez-vous et reconnectez-vous depuis cette page, en cochant la case "Me connecter automatiquement lors de mes prochaines visites". Attention, le forum rencontre actuellement quelques difficultés. En cas d'erreur 502, il ne faut pas re-valider l'envoi d'un message ou l'ouverture d'une discussion, au risque de créer un doublon.

La section divers se réorganise ! De nouvelles sous-sections à venir. (plus d'infos + donner son avis)

#1 Le 14/04/2013, à 16:20

Morrio

[Resolu]WinFF conversion impossible !

Bonjour,

Quand je fais une conversion d'un format en .ogv en .avi voici l'erreur qu'il affiche sur le terminal :

avconv version 0.8.6-6:0.8.6-0ubuntu0.12.10.1, Copyright (c) 2000-2013 the Libav developers
  built on Apr  2 2013 17:07:34 with gcc 4.7.2
[ogg @ 0x9837100] max_analyze_duration reached
Input #0, ogg, from '/home/morrio/perl.ogv':
  Duration: 00:01:22.00, start: 0.000000, bitrate: 294 kb/s
    Stream #0.0: Data: skeleton
    Stream #0.1: Video: theora, yuv420p, 1680x1040 [PAR 1:1 DAR 21:13], 1 fps, 1 tbr, 1 tbn, 1 tbc
    Stream #0.2: Audio: vorbis, 22050 Hz, mono, s16, 89 kb/s
Unknown encoder 'libxvid'
Appuyez sur Entrée pour continuer

La conversion est impossible pourquoi ?

Dernière modification par Morrio (Le 14/04/2013, à 17:00)

Hors ligne

#2 Le 14/04/2013, à 16:31

slasher-fun

Re : [Resolu]WinFF conversion impossible !

Bonjour,

Il serait intéressant de connaître les paramètres de conversion que tu indiques.

Hors ligne

#3 Le 14/04/2013, à 16:36

Morrio

Re : [Resolu]WinFF conversion impossible !

q8vg_capture-du-2013-04-14-17-35-05.png

Plus de détail ?

Dernière modification par Morrio (Le 14/04/2013, à 16:36)

Hors ligne

#4 Le 14/04/2013, à 16:37

slasher-fun

Re : [Resolu]WinFF conversion impossible !

Installe le paquet libavcodec-extra-53 qui contient la bibliothèque "libxvid" en question.

Hors ligne

#5 Le 14/04/2013, à 16:50

Morrio

Re : [Resolu]WinFF conversion impossible !

Merci beaucoup maintenant sa marche. Lors de la conversion le format vidéos c'est beaucoup dégrader.

Hors ligne

Haut de page ↑