Contenu | Rechercher | Menus

Annonce

DVD, clés USB et t-shirts Ubuntu-fr disponibles sur la boutique En Vente Libre

Si vous avez des soucis pour rester connecté, déconnectez-vous puis reconnectez-vous depuis ce lien en cochant la case
Me connecter automatiquement lors de mes prochaines visites.

À propos de l'équipe du forum.

#1 Le 03/11/2007, à 01:21

rudylar

[Résolu] FLV en AVI ??

Bonjour,

Quelqu'un peut-il m'xpliquer clairement comment passer une video flv en avi ?

PS : J'ai déja essayer d'intaller ffmpeg (meme avec la verion svn sad)puis taper

ffmpeg -i fichier.flv  -f avi fichier.avi

Hélas cela ne marche pas car j'ai ce message d'erreur :

[flv @ 0xb7efc610]Could not find codec parameters (Audio: 0x0000)

Seems stream 0 codec frame rate differs from container frame rate: 1000.00 (1000/1) -> 29.97 (30000/1001)
Input #0, flv, from 'principe.flv':
  Duration: 00:00:20.2, start: 0.000000, bitrate: N/A
  Stream #0.0: Video: flv, yuv420p, 320x256, 29.97 fps(r)
  Stream #0.1: Audio: 0x0000
File 'fichier.avi' already exists. Overwrite ? [y/N] y
Output #0, avi, to 'fichier.avi':
  Stream #0.0: Video: mpeg4, yuv420p, 320x256, q=2-31, 200 kb/s, 29.97 fps(c)
  Stream #0.1: Audio: mp2, 64 kb/s
Stream mapping:
  Stream #0.0 -> #0.0
  Stream #0.1 -> #0.1
[mp2 @ 0xb7e09308]Sampling rate 0 is not allowed in mp2
Error while opening codec for output stream #0.1 - maybe incorrect parameters such as bit_rate, rate, width or height

Je vous remercie d'avance.

Dernière modification par rudylar (Le 03/11/2007, à 12:37)


Voile un de plus à quitter Windows. J'en suis fier...

Hors ligne

#2 Le 03/11/2007, à 09:11

Bud78

Re : [Résolu] FLV en AVI ??

Par ffmepg je sais pas, mais sinon si tu installes (par les sources pour le moment mais ça devrait pas tarder à arriver dans les dépôts), avidemux dans sa version >= à 2.4 , tu disposeras d'un outil graphique qui gère le flv.
Perso, j'ai pas d'urgence donc je vais attendre gentiment que ça arrive en maj parce que avidemux par les sources, je pense que ça doit être un peu chaud.


«Tout ce qui a son prix est de peu de valeur.»
[ Friedrich Nietzsche ] - Extrait de Ainsi parlait Zarathoustra

Hors ligne

#3 Le 03/11/2007, à 10:12

Peu Importe

Re : [Résolu] FLV en AVI ??

ffmpeg -i in.flv -vcodec xvid -acodec mp3 out.avi

ou pour aller plus loin

ffmpeg -i in.flv -ab 48 -ar 22050 -b 300 -vcodec xvid -acodec mp3 out.avi

-ab audio bitrate
-ar frequence audio
-b video biteate

-f avi (ici sans intérêt puisque le fichier de sortie se termine déjà par avi)

#4 Le 03/11/2007, à 12:38

rudylar

Re : [Résolu] FLV en AVI ??

Génial !! Merci beaucoup peu importe !! smile Ça marche !!

( pour la culture G ): En fait qu'est ce que tu fais au juste ? Tu contourne le problème en utilisant un autre codec ?


Voile un de plus à quitter Windows. J'en suis fier...

Hors ligne

#5 Le 03/11/2007, à 17:32

Peu Importe

Re : [Résolu] FLV en AVI ??

rudylar a écrit :

En fait qu'est ce que tu fais au juste ? Tu contourne le problème en utilisant un autre codec ?

contourner ? c'est pas tout a fait ça. il ne faut pas confondre codec et conteneur un AVI c'est juste une boite.


par exemple

ffmpeg -i in.flv out.mp3

dans ce cas ffmpeg convertit le fichier en un fichier son MP3

ffmpeg -i in.flv -f avi out.mp3

ici il le convertit en fichier avi même si il porte une extension MP3

pendant que j'y suis je m'apperçois que j'ai oublié des 'k' dans la ligne de commande

ffmpeg -i in.flv -ab 48k -ar 22050 -b 300k -vcodec xvid -acodec mp3 out.avi

on peut trouver un ffmpeg plus complet dans le dépôt medibuntu

sudo wget http://www.medibuntu.org/sources.list.d/gutsy.list -O /etc/apt/sources.list.d/medibuntu.list
wget -q http://packages.medibuntu.org/medibuntu-key.gpg -O- | sudo apt-key add - 
sudo apt-get update && sudo apt-get upgrade

#6 Le 04/11/2007, à 17:57

sbig77

Re : [Résolu] FLV en AVI ??

Un petit tutorial avec un script automatisant la tache pour plusieurs fichiers contenus dans un même dossier :
http://trucsinformatiques.free.fr/articles.php?lng=fr&pg=10

Hors ligne