Contenu | Rechercher | Menus

Annonce

Ubuntu 16.04 LTS
Commandez vos DVD et clés USB Ubuntu-fr !

Appel à contributeurs. Réunion pour la refonte du wiki lundi 26 juin

Si vous avez des soucis pour rester connecté, déconnectez-vous puis reconnectez-vous depuis ce lien en cochant la case
Me connecter automatiquement lors de mes prochaines visites.

#1 Le 22/03/2017, à 22:54

Julientroploin

Lire sur PC les vidéos enregistrées avec le Bq Aquaris E4.5 UbuntuEdit

Bonjour,

Je ne sais pas si je dois poser la question ici ou dans la section vidéo, mais voilà, tout est dans le titre : je cherche à lire sur mon PC (Ubuntu 16.04) les vidéos enregistrées avec le Bq Aquaris E4.5 UbuntuEdition. Avec Totem, j'ai bien le son mais j'ai un écran noir, je pense donc qu'il me manque un codec, mais impossible de trouver (j'en ai pourtant installés pas mal, j'ai installé ubuntu-restricted-extras ainsi que les codecs base, good, nice, bad, ugly, et j'en oublie...).

Bien sûr VLC fait l'affaire, mais je trouve bizarre qu'une vidéo prise par Ubuntu sur mobile ne soit pas lisible sur Ubuntu/PC. Une idée ?

Pour info :

mediainfo video20170305_103754969.mp4General
Complete name                            : video20170305_103754969.mp4
Format                                   : MPEG-4
Format profile                           : Base Media
Codec ID                                 : isom (isom/3gp4)
File size                                : 23.0 MiB
Duration                                 : 1mn 32s
Overall bit rate                         : 2 090 Kbps
Encoded date                             : UTC 2017-03-05 09:39:28
Tagged date                              : UTC 2017-03-05 09:39:28

Video
ID                                       : 1
Format                                   : AVC
Format/Info                              : Advanced Video Codec
Format profile                           : High@L4.1
Format settings, CABAC                   : Yes
Format settings, ReFrames                : 2 frames
Format settings, GOP                     : M=1, N=30
Codec ID                                 : avc1
Codec ID/Info                            : Advanced Video Coding
Duration                                 : 1mn 31s
Bit rate                                 : 2 065 Kbps
Width                                    : 1 280 pixels
Height                                   : 720 pixels
Display aspect ratio                     : 16:9
Rotation                                 : 90°
Frame rate mode                          : Variable
Frame rate                               : 9.585 fps
Minimum frame rate                       : 7.739 fps
Maximum frame rate                       : 14.274 fps
Color space                              : YUV
Chroma subsampling                       : 4:2:0
Bit depth                                : 8 bits
Scan type                                : Progressive
Bits/(Pixel*Frame)                       : 0.234
Stream size                              : 22.5 MiB (98%)
Title                                    : VideoHandle
Language                                 : English
Encoded date                             : UTC 2017-03-05 09:39:28
Tagged date                              : UTC 2017-03-05 09:39:28
mdhd_Duration                            : 91287

Audio
ID                                       : 2
Format                                   : AAC
Format/Info                              : Advanced Audio Codec
Format profile                           : LC
Codec ID                                 : 40
Duration                                 : 1mn 32s
Bit rate mode                            : Constant
Bit rate                                 : 48.0 Kbps
Channel(s)                               : 2 channels
Channel positions                        : Front: L R
Sampling rate                            : 48.0 KHz
Frame rate                               : 46.875 fps (1024 spf)
Compression mode                         : Lossy
Stream size                              : 542 KiB (2%)
Title                                    : SoundHandle
Language                                 : English
Encoded date                             : UTC 2017-03-05 09:39:28
Tagged date                              : UTC 2017-03-05 09:39:28

Dernière modification par Julientroploin (Le 22/03/2017, à 22:59)


Fixe : Core i5, 12GoRAM, NVidia 9800GT Silent => Ubuntu 15.10
Portable Compaq Presario2158 : AthlonXP-M2400+, 1GoRAM, ATI Radeon mobility320M => Debian stable+Openbox
https://launchpad.net/~julienmbpe

Hors ligne