Contenu | Rechercher | Menus

Annonce

Ubuntu 16.04 LTS
Commandez vos DVD et clés USB Ubuntu-fr !

Pour en savoir un peu plus sur l'équipe du forum.

Si vous avez des soucis pour rester connecté, déconnectez-vous puis reconnectez-vous depuis ce lien en cochant la case
Me connecter automatiquement lors de mes prochaines visites.

#1 Le 13/08/2017, à 15:45

luci0le

Problème lecture fichier vidéo GO PRO

Bonjour à tous,

Je possède une caméra de la marque Go Pro et j'ai très récemment changer de système (de Windows à Ubuntu). Malheureusement, je suis dans l'incapacité de lire mes vidéos provenant de ma caméra stockées sur mon disque dur. En effet, le lecteur vidéo VLC ne prend pas en compte le codec CFHD (CineForm) qui est celui propre aux vidéos de Go Pro.

J'ai épluché des vieux topics de forums, et fait des recherches mais je ne parviens pas à trouver un logiciel Linux qui parviendrai à ouvrir ces vidéos.

Je me tourne donc vers vous dans l'espoir d'une solution.

PS: j'ai vu qu'il existait un plugin pour VLC qui permettait de lire les fichiers CFHD  (http://www.kolor.com/cineform-vlc-plugin/) mais je ne trouve nul part d’équivalent pour Linux.

PPS: j'ai aussi vu qu'il était possible de faire fonctionner certain logiciel de Windows sur Linux, mais j'attends d'abord de voir si il existe une autre solution.

Merci d'avance pour votre aide,

luci0le

Hors ligne

#2 Le 13/08/2017, à 16:06

grandtoubab

Re : Problème lecture fichier vidéo GO PRO

salut
utilises la suite ffmpeg pour vérifier les caractéristiques du fichier

ffprobe  nom-du-fichier

exemple

:~/Vidéos$ 
:~/Vidéos$ ffprobe fr22.mp4
ffprobe version 3.3.3-1 Copyright (c) 2007-2017 the FFmpeg developers
  built with gcc 6.4.0 (Debian 6.4.0-2) 20170724
  configuration: --prefix=/usr --extra-version=1 --toolchain=hardened --libdir=/usr/lib/x86_64-linux-gnu --incdir=/usr/include/x86_64-linux-gnu --enable-gpl --disable-stripping --enable-avresample --enable-avisynth --enable-gnutls --enable-ladspa --enable-libass --enable-libbluray --enable-libbs2b --enable-libcaca --enable-libcdio --enable-libflite --enable-libfontconfig --enable-libfreetype --enable-libfribidi --enable-libgme --enable-libgsm --enable-libmp3lame --enable-libopenjpeg --enable-libopenmpt --enable-libopus --enable-libpulse --enable-librubberband --enable-libshine --enable-libsnappy --enable-libsoxr --enable-libspeex --enable-libssh --enable-libtheora --enable-libtwolame --enable-libvorbis --enable-libvpx --enable-libwavpack --enable-libwebp --enable-libx265 --enable-libxvid --enable-libzmq --enable-libzvbi --enable-omx --enable-openal --enable-opengl --enable-sdl2 --enable-libdc1394 --enable-libiec61883 --enable-chromaprint --enable-frei0r --enable-libopencv --enable-libx264 --enable-shared
  WARNING: library configuration mismatch
  avcodec     configuration: --prefix=/usr --extra-version=1 --toolchain=hardened --libdir=/usr/lib/x86_64-linux-gnu --incdir=/usr/include/x86_64-linux-gnu --enable-gpl --disable-stripping --enable-avresample --enable-avisynth --enable-gnutls --enable-ladspa --enable-libass --enable-libbluray --enable-libbs2b --enable-libcaca --enable-libcdio --enable-libflite --enable-libfontconfig --enable-libfreetype --enable-libfribidi --enable-libgme --enable-libgsm --enable-libmp3lame --enable-libopenjpeg --enable-libopenmpt --enable-libopus --enable-libpulse --enable-librubberband --enable-libshine --enable-libsnappy --enable-libsoxr --enable-libspeex --enable-libssh --enable-libtheora --enable-libtwolame --enable-libvorbis --enable-libvpx --enable-libwavpack --enable-libwebp --enable-libx265 --enable-libxvid --enable-libzmq --enable-libzvbi --enable-omx --enable-openal --enable-opengl --enable-sdl2 --enable-libdc1394 --enable-libiec61883 --enable-chromaprint --enable-frei0r --enable-libopencv --enable-libx264 --enable-shared --enable-version3 --disable-doc --disable-programs --enable-libopencore_amrnb --enable-libopencore_amrwb --enable-libtesseract --enable-libvo_amrwbenc --enable-netcdf
  libavutil      55. 58.100 / 55. 58.100
  libavcodec     57. 89.100 / 57. 89.100
  libavformat    57. 71.100 / 57. 71.100
  libavdevice    57.  6.100 / 57.  6.100
  libavfilter     6. 82.100 /  6. 82.100
  libavresample   3.  5.  0 /  3.  5.  0
  libswscale      4.  6.100 /  4.  6.100
  libswresample   2.  7.100 /  2.  7.100
  libpostproc    54.  5.100 / 54.  5.100
Input #0, mov,mp4,m4a,3gp,3g2,mj2, from 'fr22.mp4':
  Metadata:
    major_brand     : isom
    minor_version   : 512
    compatible_brands: isomiso2avc1mp41
    encoder         : Lavf57.56.101
  Duration: 00:00:25.06, start: 0.000000, bitrate: 2858 kb/s
    Stream #0:0(und): Video: h264 (Constrained Baseline) (avc1 / 0x31637661), yuv420p, 1280x720 [SAR 1:1 DAR 16:9], 2727 kb/s, 25 fps, 25 tbr, 12800 tbn, 50 tbc (default)
    Metadata:
      handler_name    : VideoHandler
    Stream #0:1(und): Audio: aac (LC) (mp4a / 0x6134706D), 44100 Hz, stereo, fltp, 127 kb/s (default)
    Metadata:
      handler_name    : SoundHandler


pour lancer la lecture

ffplay nom-du-fichier

pour faire des transformations voir toutes les options
https://ffmpeg.org/ffmpeg.html

l'outil graphique basé sur ffmpeg pour transformer plus facilement
https://doc.ubuntu-fr.org/winff

Dernière modification par grandtoubab (Le 13/08/2017, à 16:12)


Linux tout seul sur HP Pavilion DV7 et Acer aspire T650
Debian 10 Buster XFCE/Gnome3 sur sda1
Canon MG3650 en wifi

Hors ligne

#3 Le 13/08/2017, à 16:20

zephirin

Re : Problème lecture fichier vidéo GO PRO

Je crois bien que tu ne nous en a pas assez dit.

D'abord il semblerait que le codec dont tu parles correspond à la 4k et donc que ta Gopro est une Black 4 ou 5.

Pour ton Windows ancien c'était lequel ?  Xp seven 8 ou 10 ?

Ta machine ses composants c'est quoi ? (processeur marque fréquence et nombre de coeurs, mémoire quantité et type, disque dur mécanique ou ssd, carte graphioque capacité marque modèle)

... tu arrivais à lire tes rushs avec ton Windows ?


Imac 27 fin 2009 Intel core 2 duo 3Ghz 16gb ddr3 1T cg 512 Sierra - MacBook 2007 2GHz 4gb ddr2 ssd120 Léopard
Barebone cpu Athlon Xp 2600+ 1.9MHz 2003 et 2gb de ddr 400 - DF linux Xfce 32bit (Débian 8)
Lenovo portable i5 3610M 8gb ddr3 W7 64 - Tour asus p5p41d 2009 Intel 2,8GHz  e6300 2x2 gb ddr2 800 Ubuntu Artuf
Tour gamer Amd Phénom 4 cœurs 8gb ddr3 1T cg 4gb Voyager 16.04 - ... Xfce addict !

Hors ligne