Contenu | Rechercher | Menus

Annonce

Si vous rencontrez des soucis à rester connecté sur le forum (ou si vous avez perdu votre mot de passe) déconnectez-vous et reconnectez-vous depuis cette page, en cochant la case "Me connecter automatiquement lors de mes prochaines visites". Attention, le forum rencontre actuellement quelques difficultés. En cas d'erreur 502, il ne faut pas re-valider l'envoi d'un message ou l'ouverture d'une discussion, au risque de créer un doublon.

La section divers se réorganise ! De nouvelles sous-sections à venir. (plus d'infos + donner son avis)

#1 Le 03/10/2012, à 10:31

alfirdaous

Supprimer une partie d'une video

Bonjour,

Je suis au courant que pour supprimer une partie on execute cette ligne de commande:

-ss 00:00:05 -t 00:03:00

de 5 secondes pour une duree de 3 minutes, c'est a dire le temps ou on va se positionner est 3 min et 5 sec, je veux faire ca:

J'ai des videos, qui ont une entree de pub pour 5 secondes, avec une duree variable, je veux supprimer la pub, si c'est possible, sinon, pour faire avec la commande precedente, je dois savoir la duree restante pour la mettre au parametre "-t", comment ouis je savoir la duree restante s'il existe bien un parametre qui determine de couper de 5 secondes vers la fin de la video.

Merci

Hors ligne

#2 Le 03/10/2012, à 11:03

Bouib

Re : Supprimer une partie d'une video

bonjour,
qu'estce que cette commande ? il doit manquer qlq chose wink
apres je ne trouve pas ton explication trés claire :
je crois comprendre que les pubs commence à la 5eme secondes du début du film pendant 3 minutes
mais apres tu dis qu'il te faut connaitre la durée restante pour la passer au parametre -t hors cela revient a dire que tu effacerais le reste...


Amd 64 2xCore Ubuntu 10.04 Lucid Lynx Gnome compiz emerald vienna azenis green slicknessblack aeroion cairo-dock :) "Je suis ce que je suis grâce à ce que nous sommes tous"

Hors ligne

#3 Le 03/10/2012, à 11:13

alfirdaous

Re : Supprimer une partie d'une video

Je m'explique:

Debut Video => ICI 5 secondes de pub ----- Reste de la video ------- Fin de la video

Au debut de la video, une pub de 5 sec, et le reste sera recuperable:

ffmpeg -sameq -ss 00:00:05 / -t 00:03:00 -i INPUT OUTPUT

Je veux supprimer la pub et garder la video, mais si la duree est variable d'une video a une autre, il me calculer le temps pour le mettre dans la duree, je veux soit:

+ Une commande pour supprimer la pub automatiquement ===> Couper 5 secondes dans toutes mes videos

OU BIEN

+ Une commande pour dire que je veux garder de 00:00:05 jusqu'a la fin

Merci

Hors ligne

#4 Le 03/10/2012, à 11:30

f.x0

Re : Supprimer une partie d'une video

Bonjour alfirdaous,

Et si tu supprimes le paramètre -t 00:03:00,

et que tu indiques juste -ss 00:00:05

cela ne fonctionne pas ???


SOPI

Hors ligne

#5 Le 03/10/2012, à 12:07

Bouib

Re : Supprimer une partie d'une video

j'allais le dire, et çà marche wink
A+


Amd 64 2xCore Ubuntu 10.04 Lucid Lynx Gnome compiz emerald vienna azenis green slicknessblack aeroion cairo-dock :) "Je suis ce que je suis grâce à ce que nous sommes tous"

Hors ligne

#6 Le 03/10/2012, à 13:07

alfirdaous

Re : Supprimer une partie d'une video

Ouuups, non, toute la video decalage du son et image:

Fichier Copier:

General
Complete name                    : FichierC.avi
Format                           : AVI
Format/Info                      : Audio Video Interleave
File size                        : 50.1 MiB
Duration                         : 20mn 35s
Overall bit rate                 : 340 Kbps
Writing application              : Lavf53.32.100

Video
ID                               : 0
Format                           : MPEG-4 Visual
Format profile                   : Simple@L1
Format settings, BVOP            : No
Format settings, QPel            : No
Format settings, GMC             : No warppoints
Format settings, Matrix          : Default (H.263)
Codec ID                         : FMP4
Duration                         : 20mn 33s
Bit rate                         : 202 Kbps
Width                            : 352 pixels
Height                           : 288 pixels
Display aspect ratio             : 1.222
Frame rate                       : 25.000 fps
Resolution                       : 8 bits
Colorimetry                      : 4:2:0
Scan type                        : Progressive
Bits/(Pixel*Frame)               : 0.080
Stream size                      : 29.7 MiB (59%)
Writing library                  : Lavc53.61.100

Audio
ID                               : 1
Format                           : AC-3
Format/Info                      : Audio Coding 3
Codec ID                         : 2000
Duration                         : 20mn 35s
Bit rate mode                    : Constant
Bit rate                         : 128 Kbps
Channel(s)                       : 2 channels
Channel positions                : Front: L R
Sampling rate                    : 48.0 KHz
Resolution                       : 16 bits
Stream size                      : 18.9 MiB (38%)
Alignment                        : Aligned on interleaves
Interleave, duration             : 32 ms (0.80 video frame)

Fichier Origine:

General
Complete name                    : Fichier.avi
Format                           : AVI
Format/Info                      : Audio Video Interleave
File size                        : 125 MiB
Duration                         : 20mn 38s
Overall bit rate                 : 847 Kbps
Writing application              : VirtualDubMod 1.5.10.3 Fr | www.virtualdub-fr.org ||  (build 2550/release)
Writing library                  : VirtualDubMod build 2550/release

Video
ID                               : 0
Format                           : AVC
Format/Info                      : Advanced Video Codec
Format profile                   : High@L1.3
Format settings, CABAC           : Yes
Format settings, ReFrames        : 3 frames
Codec ID                         : H264
Duration                         : 20mn 38s
Bit rate                         : 710 Kbps
Width                            : 352 pixels
Height                           : 288 pixels
Display aspect ratio             : 1.222
Frame rate                       : 25.000 fps
Original frame rate              : 50.000 fps
Resolution                       : 8 bits
Colorimetry                      : 4:2:0
Scan type                        : Progressive
Bits/(Pixel*Frame)               : 0.280
Stream size                      : 105 MiB (84%)
Writing library                  : x264 core 115 r1955bm 06f5fa5
Encoding settings                : cabac=1 / ref=3 / deblock=1:0:0 / analyse=0x3:0x113 / me=hex / subme=7 / psy=1 / psy_rd=1.00:0.00 / mixed_ref=1 / me_range=16 / chroma_me=1 / trellis=1 / 8x8dct=1 / cqm=0 / deadzone=21,11 / fast_pskip=1 / chroma_qp_offset=-2 / threads=2 / sliced_threads=1 / slices=2 / nr=0 / decimate=1 / interlaced=0 / bluray_compat=0 / constrained_intra=0 / bframes=0 / weightp=2 / keyint=250 / keyint_min=25 / scenecut=40 / intra_refresh=0 / rc=crf / mbtree=0 / crf=20.0 / qcomp=0.60 / qpmin=0 / qpmax=69 / qpstep=4 / ip_ratio=1.40 / aq=1:1.00

Audio
ID                               : 1
Format                           : MPEG Audio
Format version                   : Version 1
Format profile                   : Layer 3
Format_Settings_Mode             : Joint stereo
Format_Settings_ModeExtension    : MS Stereo
Codec ID                         : 55
Codec ID/Hint                    : MP3
Duration                         : 20mn 38s
Bit rate mode                    : Constant
Bit rate                         : 128 Kbps
Channel(s)                       : 2 channels
Sampling rate                    : 48.0 KHz
Stream size                      : 18.9 MiB (15%)
Alignment                        : Split accross interleaves
Interleave, duration             : 40 ms (1.00 video frame)
Interleave, preload duration     : 500 ms

Hors ligne

#7 Le 03/10/2012, à 13:31

Bouib

Re : Supprimer une partie d'une video

t'as fait quoi comme commande ? il a enlevé que 3 secondes...


Amd 64 2xCore Ubuntu 10.04 Lucid Lynx Gnome compiz emerald vienna azenis green slicknessblack aeroion cairo-dock :) "Je suis ce que je suis grâce à ce que nous sommes tous"

Hors ligne

#8 Le 03/10/2012, à 13:48

f.x0

Re : Supprimer une partie d'une video

Il est possible que la conversion soit responsable du décalage :

Video :
Bit rate                         : 710 Kbps         et         Bit rate                         : 202 Kbps

ainsi que le changement de codec

Dernière modification par f.x0 (Le 03/10/2012, à 13:49)


SOPI

Hors ligne

#9 Le 03/10/2012, à 13:59

f.x0

Re : Supprimer une partie d'une video

Perso j'utilise mencoder que je connais mieux, et cela fonctionne plutôt pas mal.


La commande passée pour couper la vidéo sans réencoder c'est :

mencoder video_originale.avi -ss 5 -ovc copy -oac copy -o video_modifiée.avi

remplaces le nom du fichier par celui de ton fichier

Dernière modification par f.x0 (Le 03/10/2012, à 14:00)


SOPI

Hors ligne

#10 Le 03/10/2012, à 14:15

alfirdaous

Re : Supprimer une partie d'une video

Merci, j'ai convertis la video vers mp4, ca marche IMPEC, si on veut supprimer la pub de 5 secondes qui est a la fin de la video, et non pas au debut?

Hors ligne

#11 Le 03/10/2012, à 14:22

f.x0

Re : Supprimer une partie d'une video

si on veut supprimer la pub de 5 secondes qui est a la fin de la video,

je pense qu'il faut connaitre la durée totale de la vidéo et retrancher les 5 dernières secondes.


SOPI

Hors ligne

#12 Le 03/10/2012, à 14:38

alfirdaous

Re : Supprimer une partie d'une video

f.x0 a écrit :

je pense qu'il faut connaitre la durée totale de la vidéo et retrancher les 5 dernières secondes.

Eh oui, on tombe toujours sur la duree totale

Hors ligne

#13 Le 03/10/2012, à 17:34

f.x0

Re : Supprimer une partie d'une video

Il existe peut-être une commande pour indiquer les 5 dernières secondes,
mais je ne la connaît pas.

Sinon il faut passer par un script pour mettre la durée totale en tant que variable automatiquement.


SOPI

Hors ligne

#14 Le 04/10/2012, à 00:30

alfirdaous

Re : Supprimer une partie d'une video

f.x0 a écrit :

Sinon il faut passer par un script pour mettre la durée totale en tant que variable automatiquement.

Oui, je recupere la duree totale totale et je fais les calculs necessaires, je me disais peut etre il y a une solution alternative sans passer par 2 etapes

Hors ligne

Haut de page ↑