Contenu | Rechercher | Menus

Annonce

Si vous rencontrez des soucis à rester connecté sur le forum (ou si vous avez perdu votre mot de passe) déconnectez-vous et reconnectez-vous depuis cette page, en cochant la case "Me connecter automatiquement lors de mes prochaines visites".
Test de l'ISO d'Ubuntu francophone : nous avons besoin de testeurs pour la version francophone d'Ubuntu 14.04. Liens et informations ici.

Attention, une faille de sécurité dans bash a récemment été rapportée, il est recommandé de mettre à jour son système (plus de détails) *** mise à jour 12/10/2014 ***

#1 Le 03/06/2011, à 13:59

maboutoune

Problème avec winff et Hyper video converter entre autre...

Bonjour,
j'essaye de convertir des fichiers vidéo. Après consultation des forums et/ou documentations j'ai installé Winff avec synaptic (bien que je sois sous Kubuntu). Le programme se lance, mais dès que je demande la conversion d'une video wma en flv, il me crée un fichier en .flv de 0 octets et rien de plus.
J'ai alors installé Hyper vidéo converter (version Qt) et là, le programme semble se lancer puis se referme de suite. Dans le terminal voila ce que ça donne:

gilles@gilles-MS-1613:~$ hypervc
[FORMS.PP] ExceptionOccurred 
  Sender=EAccessViolation
  Exception=Access violation
  Stack trace:
  $010971B8
  $012CDF52
  $012C5509
  $012C57FC
  $01295B87
  $0126059B
  $012A9A49
  $01207CAE
  $0120BDF5
  $01220ACF
  $0121AB6A
  $0121BE11
  $01D393FB
  $01D3A0D0
  $01D29E45
  $03D39B66
  $01D3E9DF
TApplication.HandleException Access violation
  Stack trace:
  $010971B8
  $012CDF52
  $012C5509
  $012C57FC
  $01295B87
  $0126059B
  $012A9A49
  $01207CAE
  $0120BDF5
  $01220ACF
  $0121AB6A
  $0121BE11
  $01D393FB
  $01D3A0D0
  $01D29E45
  $03D39B66
  $01D3E9DF                                                                                      
QInotifyFileSystemWatcherEngine::addPaths: inotify_add_watch failed: Aucun fichier ou dossier de ce type                                                                                          
QFileSystemWatcher: failed to add paths: /home/gilles/.config/ibus/bus                           
Bus::open: Can not get ibus-daemon's address.                                                    
IBusInputContext::createInputContext: no connection to ibus-daemon                               
QWidget::repaint: Recursive repaint detected                                                     
[FORMS.PP] ExceptionOccurred                                                                     
gilles@gilles-MS-1613:~$

Une idée pour mon problème?
Merci...

Hors ligne

#2 Le 16/02/2013, à 17:32

O'Bit

Re : Problème avec winff et Hyper video converter entre autre...

un petit Up
Je suis sous ubuntu 12.10 et Hyper me retourne  :

[WARNING] Out of OEM specific VK codes, changing to unassigned
[WARNING] Out of unassigned VK codes, assigning $FF
 Gtk2_ItemSelectionChanged  ItemCache=nil ListView1
 Gtk2_ItemSelectionChanged  ItemCache=nil ListView1
[FORMS.PP] ExceptionOccurred 
  Sender=EAccessViolation
  Exception=Access violation
  Stack trace:
  $B70B78EE
TApplication.HandleException Access violation
  Stack trace:
  $B70B78EE

Tout les codec sont à jour

Hors ligne

#3 Le 16/02/2013, à 17:58

f.x0

Re : Problème avec winff et Hyper video converter entre autre...

Bonjour O'Bit,

Change video par le nom de ta video dans cette commande :

ffmpeg -i video.wma -acodec libmp3lame -ar 22050 -ab 32K -vcodec flv -aspect 1.33 -s 320x240 -r 25 -b 600k video.flv

Ça donne quoi ???


SOPI

Hors ligne

#4 Le 16/02/2013, à 19:25

O'Bit

Re : Problème avec winff et Hyper video converter entre autre...

Merci pour la suggestion, ça marche, big_smile
mais l’intérêt d'hyper étant son interface graphique ça laisse le mystère entier. :-S
J'ai un vieux ordi sous ubuntu 10.10 où hyper fonctionne, donc je bosse avec mais j'aurais bien aimé utiliser mon ordi courant.
Je laisse le retour d'info même si je crois qu'on y apprend pas grand chose

pas trop le temps de m'y pencher, mais si certains ont des pistes de recherches je suis preneur.

@0-bit:~$ ffmpeg -i ~/MVI_0163.AVI -acodec libmp3lame -ar 22050 -ab 32K -vcodec flv -aspect 1.33 -s 320x240 -r 25 -b 600k ~/video.flv
ffmpeg version 0.8.5-4:0.8.5-0ubuntu0.12.04.1, Copyright (c) 2000-2012 the Libav developers
  built on Jan 24 2013 18:03:14 with gcc 4.6.3
*** THIS PROGRAM IS DEPRECATED ***
This program is only provided for compatibility and will be removed in a future release. Please use avconv instead.
Input #0, avi, from ~/MVI_0163.AVI':
  Metadata:
    creation_time   : 2011-04-14 00:20:13
    encoder         : CanonMVI06
    title           : MVI_0163
  Duration: 00:02:59.99, start: 0.000000, bitrate: 746 kb/s
    Stream #0.0: Video: mjpeg, yuvj422p, 160x120, 15 tbr, 15 tbn, 15 tbc
    Stream #0.1: Audio: pcm_s16le, 11025 Hz, 1 channels, s16, 176 kb/s
Incompatible pixel format 'yuvj422p' for codec 'flv', auto-selecting format 'yuv420p'
[buffer @ 0x9bd1d80] w:160 h:120 pixfmt:yuvj422p
[scale @ 0x9bcd800] w:160 h:120 fmt:yuvj422p -> w:320 h:240 fmt:yuv420p flags:0x4
Output #0, flv, to '~/video.flv':
  Metadata:
    creation_time   : 2011-04-14 00:20:13
    title           : MVI_0163
    encoder         : Lavf53.21.1
    Stream #0.0: Video: flv, yuv420p, 320x240 [PAR 254:255 DAR 1016:765], q=2-31, 600 kb/s, 1k tbn, 25 tbc
    Stream #0.1: Audio: libmp3lame, 22050 Hz, 1 channels, s16, 600 kb/s
Stream mapping:
  Stream #0.0 -> #0.0
  Stream #0.1 -> #0.1
Press ctrl-c to stop encoding
frame= 2700 fps=110 q=2.0 Lsize=   14080kB time=179.96 bitrate= 640.9kbits/s    
video:10413kB audio:3517kB global headers:0kB muxing overhead 1.078665%

Dernière modification par O'Bit (Le 16/02/2013, à 19:27)

Hors ligne

#5 Le 17/02/2013, à 10:55

f.x0

Re : Problème avec winff et Hyper video converter entre autre...

Il faudrait que dans winff, tu coches l'option "Afficher la ligne de commande"
et que tu la recopies dans ton post.

On pourra comparer les 2 commandes, et tu devrais pouvoir cerner le problème lié à Winff
et modifier la commande (en faisant un réglage personnalisé) pour que Winff fonctionne comme
dans cette commande

ffmpeg -i ~/MVI_0163.AVI -acodec libmp3lame -ar 22050 -ab 32K -vcodec flv -aspect 1.33 -s 320x240 -r 25 -b 600k ~/video.flv

SOPI

Hors ligne

Haut de page ↑